Виртуозность / Виртуальность / Убийца виртуоз / Virtuosity (Бретт Леонард / Brett Leonard) [1995, США, фантастика, боевик, триллер, BDRip 720p] AVO (Ю.Живов) + MVO (СТС) + DVO (НТВ+) + DVO (NORD) + Sub Eng + Original Eng

Ответить на тему
 
Автор Сообщение

user ®

Стаж: 7 лет 7 месяцев

Сообщений: 20008

Пост Пост: #1 от 23-Окт-2013 22:55

[Цитировать]

Виртуозность / Виртуальность / Убийца виртуоз / Virtuosity
Страна: США
Студия: Paramount Pictures
Жанр: фантастика, боевик, триллер
Год выпуска: 1995
Продолжительность: 01:45:53
Перевод: Авторский (одноголосый закадровый) Ю.Живов
Перевод 2: Профессиональный (многоголосый закадровый) СТС
Перевод 3: Профессиональный (двухголосый закадровый) НТВ+
Перевод 4: Профессиональный (двухголосый закадровый) NORD
Cубтитры: английские
Оригинальная аудиодорожка: английский
Режиссер: Бретт Леонард / Brett Leonard
В ролях: Уильям Файтнер, Расселл Кроу, Дэнзел Вашингтон, Уильям Форсайт, Кевин Дж. О'Коннор, Луиз Флетчер, Костас Мэндилор, Стивен Спинелла, Келли Линч
Описание: Его имя Сид 6.7. Он создан из двухсот отборных подонков, негодяев и психопатов, наделен интеллектом и хитростью самых знаменитых серийных убийц в истории человечества. Сид 6.7 был специально придуман, как совершенное воплощение зла и жестокости, для особой компьютерной программы, помогающей полицейским ловить преступников. Но случилось непоправимое. Сиду удалось сбежать из кибернетического пространства в реальный мир. Идеальный преступник был на свободе и жаждал преподать людям страшный урок... Единственным человеком, который встал на пути компьютерного садиста, оказался полицейский по имени Паркер Барнис. Но офицеру Барнису всегда приходилось иметь дело с бандитами из плоти и крови. Сможет ли он совладать с неуязвимым Сидом 6.7?
Тип релиза: BDRip 720p SiNNERS
Контейнер: MKV
Видео: 1280x544; 23.976 fps; 4391 kbps
Аудио 1: Русский, AC3 5.1 448 Kbps 48,0 КГц (Авторский одноголосый закадровый Ю.Живов)
Аудио 2: Русский, AC3 2.0 192 Kbps 48,0 КГц (Профессиональный многоголосый закадровый СТС)
Аудио 3: Русский, AC3 2.0 192 Kbps 48,0 КГц (Профессиональный двухголосый закадровый НТВ+)
Аудио 4: Русский, AC3 2.0 192 Kbps 48,0 КГц (Профессиональный двухголосый закадровый NORD)
Аудио 5: English, DTS 5.1 1509kbps 48,0 КГц (Оригинал)
Да простят меня "любители " гнусавого перевода, но уважаемого метра Юрия Живова поставил дорожкой по умолчанию ибо как минимум AC3 5.1...
Ю.Живов взят у formally, автору большое спасибо. Дорожка удивила плавающим рассинхроном. Оказалось что в DVD версии есть пропуски. Проведена синхронизация, на пропуски вставлен оригинал, мест без перевода нет.
Многоголосые переводы взяты у tеko за что авторам и ему большое спасибо.

MediaInfo

Complete name : Виртуозность BDRip 720p SiNNERS.mkv
Format : Matroska
Format version : Version 2
File size : 5.12 GiB
Duration : 1h 45mn
Overall bit rate : 6 926 Kbps
Encoded date : UTC 2013-10-23 16:50:23
Writing application : mkvmerge v5.0.1 ('Es ist Sommer') built on Oct 9 2011 11:55:43
Writing library : libebml v1.2.2 + libmatroska v1.3.0
Video
ID : 1
Format : AVC
Format/Info : Advanced Video Codec
Format profile : High@L4.1
Format settings, CABAC : Yes
Format settings, ReFrames : 5 frames
Codec ID : V_MPEG4/ISO/AVC
Duration : 1h 45mn
Bit rate : 4 391 Kbps
Width : 1 280 pixels
Height : 544 pixels
Display aspect ratio : 2.35:1
Frame rate mode : Constant
Frame rate : 23.976 fps
Color space : YUV
Chroma subsampling : 4:2:0
Bit depth : 8 bits
Scan type : Progressive
Bits/(Pixel*Frame) : 0.263
Stream size : 3.15 GiB (61%)
Writing library : x264 core 138 r2358 9e941d1
Encoding settings : cabac=1 / ref=5 / deblock=1:0:0 / analyse=0x3:0x113 / me=umh / subme=7 / psy=1 / psy_rd=1.00:0.00 / mixed_ref=1 / me_range=16 / chroma_me=1 / trellis=1 / 8x8dct=1 / cqm=0 / deadzone=21,11 / fast_pskip=0 / chroma_qp_offset=-2 / threads=12 / lookahead_threads=2 / sliced_threads=0 / nr=0 / decimate=1 / interlaced=0 / bluray_compat=0 / constrained_intra=0 / bframes=3 / b_pyramid=2 / b_adapt=1 / b_bias=0 / direct=1 / weightb=1 / open_gop=0 / weightp=2 / keyint=250 / keyint_min=23 / scenecut=40 / intra_refresh=0 / rc_lookahead=40 / rc=2pass / mbtree=1 / bitrate=4391 / ratetol=1.0 / qcomp=0.60 / qpmin=0 / qpmax=69 / qpstep=4 / cplxblur=20.0 / qblur=0.5 / ip_ratio=1.40 / aq=1:1.00
Language : English
Default : Yes
Forced : No
Audio #1
ID : 2
Format : AC-3
Format/Info : Audio Coding 3
Mode extension : CM (complete main)
Format settings, Endianness : Big
Codec ID : A_AC3
Duration : 1h 45mn
Bit rate mode : Constant
Bit rate : 448 Kbps
Channel(s) : 6 channels
Channel positions : Front: L C R, Side: L R, LFE
Sampling rate : 48.0 KHz
Bit depth : 16 bits
Compression mode : Lossy
Stream size : 339 MiB (6%)
Title : Авторский Ю.Живов
Language : Russian
Default : Yes
Forced : No
Audio #2
ID : 3
Format : AC-3
Format/Info : Audio Coding 3
Mode extension : CM (complete main)
Format settings, Endianness : Big
Codec ID : A_AC3
Duration : 1h 45mn
Bit rate mode : Constant
Bit rate : 192 Kbps
Channel(s) : 2 channels
Channel positions : Front: L R
Sampling rate : 48.0 KHz
Bit depth : 16 bits
Compression mode : Lossy
Stream size : 145 MiB (3%)
Title : Многоголосый закадровый СТС
Language : Russian
Default : No
Forced : No
Audio #3
ID : 4
Format : AC-3
Format/Info : Audio Coding 3
Mode extension : CM (complete main)
Format settings, Endianness : Big
Codec ID : A_AC3
Duration : 1h 45mn
Bit rate mode : Constant
Bit rate : 192 Kbps
Channel(s) : 2 channels
Channel positions : Front: L R
Sampling rate : 48.0 KHz
Bit depth : 16 bits
Compression mode : Lossy
Stream size : 145 MiB (3%)
Title : Двухголосый закадровый НТВ+
Language : Russian
Default : No
Forced : No
Audio #4
ID : 5
Format : AC-3
Format/Info : Audio Coding 3
Mode extension : CM (complete main)
Format settings, Endianness : Big
Codec ID : A_AC3
Duration : 1h 45mn
Bit rate mode : Constant
Bit rate : 192 Kbps
Channel(s) : 2 channels
Channel positions : Front: L R
Sampling rate : 48.0 KHz
Bit depth : 16 bits
Compression mode : Lossy
Stream size : 145 MiB (3%)
Title : Двухголосый закадровый NORD
Language : Russian
Default : No
Forced : No
Audio #5
ID : 6
Format : DTS
Format/Info : Digital Theater Systems
Mode : 16
Format settings, Endianness : Big
Codec ID : A_DTS
Duration : 1h 45mn
Bit rate mode : Constant
Bit rate : 1 509 Kbps
Channel(s) : 6 channels
Channel positions : Front: L C R, Side: L R, LFE
Sampling rate : 48.0 KHz
Bit depth : 24 bits
Compression mode : Lossy
Stream size : 1.12 GiB (22%)
Title : Оригинал
Language : English
Default : No
Forced : No
Text
ID : 7
Format : UTF-8
Codec ID : S_TEXT/UTF8
Codec ID/Info : UTF-8 Plain Text
Language : English
Default : No
Forced : No
Menu
00:00:00.000 : en:00:00:00.000
00:07:48.843 : en:00:07:48.843
00:12:16.235 : en:00:12:16.235
00:16:12.597 : en:00:16:12.597
00:18:01.372 : en:00:18:01.372
00:21:19.195 : en:00:21:19.195
00:25:11.385 : en:00:25:11.385
00:31:30.931 : en:00:31:30.931
00:35:41.473 : en:00:35:41.473
00:40:19.250 : en:00:40:19.250
00:48:51.137 : en:00:48:51.137
00:52:28.062 : en:00:52:28.062
00:56:36.518 : en:00:56:36.518
01:02:41.883 : en:01:02:41.883
01:06:55.136 : en:01:06:55.136
01:12:33.849 : en:01:12:33.849
01:20:54.516 : en:01:20:54.516
01:27:40.380 : en:01:27:40.380
01:32:57.071 : en:01:32:57.071
01:38:44.877 : en:01:38:44.877

Скриншоты

Скачать

Скачать торрент!

Как скачивать? · Что такое торрент? · Рейтинг и ограничения

Сайт не распространяет и не хранит электронные версии произведений, а лишь предоставляет доступ к создаваемому пользователями каталогу ссылок на торрент-файлы, которые содержат только списки хеш-сумм

[Профиль] [ЛС]
Показать сообщения:    
Ответить на тему

Текущее время: Сегодня 11:59

Часовой пояс: GMT + 4



Вы не можете начинать темы
Вы не можете отвечать на сообщения
Вы не можете редактировать свои сообщения
Вы не можете удалять свои сообщения
Вы не можете голосовать в опросах
Вы не можете прикреплять файлы к сообщениям
Вы не можете скачивать файлы