Турбо / Turbo (Дэвид Сорен / David Soren) [2013, Мультфильм, комедия, приключения, семейный, спорт, WEB-DLRip] Dub

Ответить на тему
 
Автор Сообщение

user ®

Стаж: 13 лет

Сообщений: 15041

Пост Пост: #1 от 22-Окт-2013 11:45

[Цитировать]

Турбо / Turbo- Год выпуска: 2013
Выпущено: США, DreamWorks Animation
Жанр: мультфильм, детский, семейный
Продолжительность: 01:36:19
Перевод: Профессиональный (полное дублирование) iTunes
Субтитры: нет-Режиссер:
Дэвид Сорен / David Soren-В ролях:
Райан Рейнольдс, Пол Джаматти, Майкл Пенья, Луис Гузман, Билл Хейдер, Ричард Дженкинс, Кен Жонг, Мишель Родригез, Майя Рудольф, Бен Шварц-О мультфильме:
Ничто так не раздражает темпераментную, мечтающую о скорости улитку с говорящим именем Турбо как неспешная жизнь, медленные разговоры, заторможенные соседи. Пусть наш герой выглядит большим чудаком в этом вялом, неторопливом мире, пусть он идет вопреки закону природы о «рожденном ползать», но если в сердце горит «пламенный мотор», а душа верит в чудо, оно просто не имеет право не произойти!-КиноПоиск | Сэмпл |-Качество: WEB-DLRip [Turbo.2013.720p.WEB-DL.Rus.Ukr.Eng.HDCLUB]
Формат: AVI
Видео: 720x304 (2.37:1), 23.976 fps, XviD build 73 ~1774 kbps avg, 0.34 bit/pixel
аудио: 48 kHz, AC3 Dolby Digital, 3/2 (L,C,R,l,r) + LFE ch, ~384.00 kbps avg
-

Скриншоты

MediaInfo

General
Complete name                            : D:\Turbo_2013_WEB_DLRip_by_Dalemake.avi
Format                                   : AVI
Format/Info                              : Audio Video Interleave
File size                                : 1.46 GiB
Duration                                 : 1h 36mn
Overall bit rate                         : 2 165 Kbps
Writing application                      : VirtualDubMod 1.5.10.3 | www.virtualdub-fr.org || (build 2550/release)
Writing library                          : VirtualDubMod build 2550/release
Video
ID                                       : 0
Format                                   : MPEG-4 Visual
Format profile                           : Advanced Simple@L5
Format settings, BVOP                    : 1
Format settings, QPel                    : No
Format settings, GMC                     : No warppoints
Format settings, Matrix                  : Custom
Codec ID                                 : XVID
Codec ID/Hint                            : XviD
Duration                                 : 1h 36mn
Bit rate                                 : 1 774 Kbps
Width                                    : 720 pixels
Height                                   : 304 pixels
Display aspect ratio                     : 2.35:1
Frame rate                               : 23.976 fps
Color space                              : YUV
Chroma subsampling                       : 4:2:0
Bit depth                                : 8 bits
Scan type                                : Progressive
Compression mode                         : Lossy
Bits/(Pixel*Frame)                       : 0.338
Stream size                              : 1.19 GiB (82%)
Writing library                          : XviD 73
Audio
ID                                       : 1
Format                                   : AC-3
Format/Info                              : Audio Coding 3
Mode extension                           : CM (complete main)
Format settings, Endianness              : Big
Codec ID                                 : 2000
Duration                                 : 1h 35mn
Bit rate mode                            : Constant
Bit rate                                 : 384 Kbps
Channel(s)                               : 6 channels
Channel positions                        : Front: L C R, Side: L R, LFE
Sampling rate                            : 48.0 KHz
Bit depth                                : 16 bits
Compression mode                         : Lossy
Stream size                              : 263 MiB (18%)
Alignment                                : Split accross interleaves
Interleave, duration                     : 42 ms (1.01 video frame)
Interleave, preload duration             : 500 ms
-
Скачать

Скачать торрент! Турбо / Turbo (Дэвид Сорен / David Soren) [2013, Мультфильм, комедия, приключения, семейный, спорт, WEB-DLRip] Dub

Как скачивать? · Что такое торрент? · Рейтинг и ограничения

Сайт не распространяет и не хранит электронные версии произведений, а лишь предоставляет доступ к создаваемому пользователями каталогу ссылок на торрент-файлы, которые содержат только списки хеш-сумм

[Профиль] [ЛС]
Показать сообщения:    
Ответить на тему

Текущее время: Сегодня 00:57

Часовой пояс: GMT + 4



Вы не можете начинать темы
Вы не можете отвечать на сообщения
Вы не можете редактировать свои сообщения
Вы не можете удалять свои сообщения
Вы не можете голосовать в опросах
Вы не можете прикреплять файлы к сообщениям
Вы не можете скачивать файлы