Крутой парень / Продвинутый / The New Guy (Эд Дектер / Ed Decter) [2002, США, комедия, WEB-DL 720p] Dub + DVO + AVO (Евгений Гранкин) + Sub Rus, Eng + Original Eng

Ответить на тему
 
Автор Сообщение

user ®

Стаж: 7 лет 7 месяцев

Сообщений: 20008

Пост Пост: #1 от 21-Окт-2013 21:25

[Цитировать]

Крутой парень / The New Guy
Страна: США
Жанр: комедия
Год выпуска: 2002
Продолжительность: 01:28:34
Перевод 1: Профессиональный (дублированный)
Перевод 2: Профессиональный (двухголосый закадровый)
Перевод 3: Авторский (одноголосый закадровый) Евгений Гранкин
Cубтитры: русские, английские
Оригинальная аудиодорожка: английский
Режиссер: Эд Дектер / Ed Decter
В ролях: DJ Куаллс, Элиза Душку, Зои Дешанель, Джерод Миксон, Парри Шен, Лайл Лаветт, Эдди Гриффин, Санни Мабри, Росс Паттерсон, Мэтт Годжин...
Описание: В обычной средней школе появляется новый парень — Гил Харрис. Он сам Мистер Популярность. Загадочный и очаровательный Гил без труда завоевывает сердца девушек.
Однако у нового самого популярного парня в школе есть своя тайна. Еще совсем недавно его звали Диззи, он учился в другой школе и был там неудачником. Но как же малопривлекательный Диззи превратился с блистательного Гила, любимца всей школы? Просто Диззи захотел измениться.
Один из парней, Лютер, рассказал ему несколько секретов, которые гарантировали Диззи популярность. Неукоснительно выполняя советы Лютера Диззи смог добиться успеха в новой школе. Однако новый парень нравится далеко не всем учащимся школы…
Доп. информация: Двухголосый перевод с раздачи Ruslik&$, перевод Гранкина с раздачи TgumanoidT.
Сэмпл: http://multi-up.com/915125
Тип релиза: WEB-DL 720p
Контейнер: MKV
Видео: 1280x718 (16:9), 23.976 fps, AVC, ~3888 Kbps, 0.176 bits/pixel
Аудио 1: Russian, 48.0 KHz, AC3, 6 ch, 448 Kbps - Dub
Аудио 2: Russian, 48.0 KHz, AC3, 2 ch, 128 Kbps - DVO
Аудио 3: Russian, 48.0 KHz, AC3, 2 ch, 128 Kbps - AVO Евгений Гранкин
Аудио 4: English, 48.0 KHz, AC3, 6 ch, 448 Kbps
Формат субтитров: softsub (SRT)

MediaInfo

General
Unique ID : 209564158815232634952535537244230708469 (0x9DA896C065D81AFABBA4A2551A7CECF5)
Complete name : D:\torrent\Мои Раздачи\The New Guy.mkv
Format : Matroska
Format version : Version 4 / Version 2
File size : 3.18 GiB
Duration : 1h 28mn
Overall bit rate : 5 143 Kbps
Encoded date : UTC 2013-10-20 14:53:40
Writing application : mkvmerge v6.4.1 ('Omega Point') built on Sep 16 2013 22:05:10
Writing library : libebml v1.3.0 + libmatroska v1.4.1
Video
ID : 1
Format : AVC
Format/Info : Advanced Video Codec
Format profile : High@L3.1
Format settings, CABAC : No
Format settings, ReFrames : 2 frames
Codec ID : V_MPEG4/ISO/AVC
Duration : 1h 28mn
Bit rate : 3 888 Kbps
Width : 1 280 pixels
Height : 718 pixels
Display aspect ratio : 16:9
Frame rate mode : Constant
Frame rate : 23.976 fps
Color space : YUV
Chroma subsampling : 4:2:0
Bit depth : 8 bits
Scan type : Progressive
Bits/(Pixel*Frame) : 0.176
Stream size : 2.41 GiB (76%)
Default : Yes
Forced : No
Color primaries : BT.709
Transfer characteristics : BT.709
Matrix coefficients : BT.709
Audio #1
ID : 2
Format : AC-3
Format/Info : Audio Coding 3
Mode extension : CM (complete main)
Format settings, Endianness : Big
Codec ID : A_AC3
Duration : 1h 28mn
Bit rate mode : Constant
Bit rate : 448 Kbps
Channel count : 6 channels
Channel positions : Front: L C R, Side: L R, LFE
Sampling rate : 48.0 KHz
Bit depth : 16 bits
Compression mode : Lossy
Stream size : 284 MiB (9%)
Title : Dub
Language : Russian
Default : Yes
Forced : No
Audio #2
ID : 3
Format : AC-3
Format/Info : Audio Coding 3
Mode extension : CM (complete main)
Format settings, Endianness : Big
Codec ID : A_AC3
Duration : 1h 28mn
Bit rate mode : Constant
Bit rate : 128 Kbps
Channel count : 2 channels
Channel positions : Front: L R
Sampling rate : 48.0 KHz
Bit depth : 16 bits
Compression mode : Lossy
Stream size : 81.1 MiB (2%)
Title : DVO
Language : Russian
Default : No
Forced : No
Audio #3
ID : 4
Format : AC-3
Format/Info : Audio Coding 3
Mode extension : CM (complete main)
Format settings, Endianness : Big
Codec ID : A_AC3
Duration : 1h 28mn
Bit rate mode : Constant
Bit rate : 128 Kbps
Channel count : 2 channels
Channel positions : Front: L R
Sampling rate : 48.0 KHz
Bit depth : 16 bits
Compression mode : Lossy
Stream size : 81.1 MiB (2%)
Title : AVO Евгений Гранкин
Language : Russian
Default : No
Forced : No
Audio #4
ID : 5
Format : AC-3
Format/Info : Audio Coding 3
Mode extension : CM (complete main)
Format settings, Endianness : Big
Codec ID : A_AC3
Duration : 1h 28mn
Bit rate mode : Constant
Bit rate : 448 Kbps
Channel count : 6 channels
Channel positions : Front: L C R, Side: L R, LFE
Sampling rate : 48.0 KHz
Bit depth : 16 bits
Compression mode : Lossy
Stream size : 284 MiB (9%)
Language : English
Default : No
Forced : No
Text #1
ID : 6
Format : UTF-8
Codec ID : S_TEXT/UTF8
Codec ID/Info : UTF-8 Plain Text
Language : Russian
Default : No
Forced : No
Text #2
ID : 7
Format : UTF-8
Codec ID : S_TEXT/UTF8
Codec ID/Info : UTF-8 Plain Text
Language : English
Default : No
Forced : No
Menu
00:00:00.000 : en:Start
00:03:35.000 : en:First day, senior year
00:06:21.000 : en:"MINE!"
00:09:28.000 : en:Dizzy gets the spirit
00:11:26.000 : en:A lesson in bad
00:14:18.000 : en:Grounds for expulsion
00:17:17.000 : en:Building toughness
00:22:18.000 : en:Gil Harris
00:24:47.000 : en:Biggest & baddest competition
00:29:54.000 : en:Babe magnet
00:34:20.000 : en:Grand entrance
00:36:39.000 : en:"Gil blew me off."
00:37:35.000 : en:Earth's most outrageous woman
00:40:27.000 : en:Surrounded with love
00:45:10.000 : en:Team spirit
00:48:50.000 : en:Swimsuit shopping
00:50:07.000 : en:Dropping his friends
00:52:31.000 : en:A happy faculty
00:55:55.000 : en:Ed Ligget
00:58:48.000 : en:"Let It Whip"
01:02:29.000 : en:Riding the bull
01:05:59.000 : en:Dizzy William Wallace
01:07:55.000 : en:Highlanders vs. Drillers
01:11:29.000 : en:A very sore loser
01:13:37.000 : en:Suburban Funk
01:16:02.000 : en:The same guy
01:18:54.000 : en:Something in common
01:21:46.000 : en:Outtakes & Credits

Скриншоты

Скачать

Скачать торрент!

Как скачивать? · Что такое торрент? · Рейтинг и ограничения

Сайт не распространяет и не хранит электронные версии произведений, а лишь предоставляет доступ к создаваемому пользователями каталогу ссылок на торрент-файлы, которые содержат только списки хеш-сумм

[Профиль] [ЛС]
Показать сообщения:    
Ответить на тему

Текущее время: Сегодня 22:31

Часовой пояс: GMT + 4



Вы не можете начинать темы
Вы не можете отвечать на сообщения
Вы не можете редактировать свои сообщения
Вы не можете удалять свои сообщения
Вы не можете голосовать в опросах
Вы не можете прикреплять файлы к сообщениям
Вы не можете скачивать файлы