Гадкий я 2 / Despicable Me 2 (Пьер Соффин / Pierre Coffin, Крис Рено / Chris Renaud) [2013, мультфильм, комедия, криминал, приключения, семейн, BDRip-AVC] Dub + Rus, Eng Sub

Ответить на тему
 
Автор Сообщение

user ®

Стаж: 13 лет

Сообщений: 15041

Пост Пост: #1 от 21-Окт-2013 10:20

[Цитировать]

Гадкий я 2 / Despicable Me 2- Страна: США
Жанр: мультфильм, комедия, криминал, приключения, семейн
Продолжительность: 1h 37mn 58s
Год выпуска: 2013
Перевод: Профессиональный (дублированный)
Русские субтитры: есть
Режиссёр: Пьер Соффин / Pierre Coffin, Крис Рено / Chris Renaud
Роли озвучивали: Стив Карелл (Gru, озвучка), Кристен Уиг (Lucy, озвучка), Бенджамин Брэтт (Eduardo, El Macho, озвучка), Миранда Косгров (Margo, озвучка), Расселл Брэнд (Dr. Nefario, озвучка), Кен Жонг (Floyd, озвучка), Стив Куган (Silas, озвучка), Элси Фишер (Agnes, озвучка), Дэна Гайер (Edith, озвучка), Мойзес Ариас (Antonio)-ОписаниеВ то время как Грю, бывший суперзлодей, приспосабливается к семейной жизни и пытается честным трудом зарабатывать в сфере бизнеса, тайные лаборатории Арктики оказываются украденными. Анти-Злодейская лига решает, что она нуждается в помощи Грю и его новобранцев в расследовании.-Семпл

IMDb: 7.70 (83 661)
Качество: BDRip-AVC
Формат: MKV
Видео: AVC 2415 Kbps 1040 x 560 (1.857) 23.976 fps
Аудио: AC-3 384 Kbps 6 channels, 48.0 KHz
Аудио 2: AC-3 384 Kbps 6 channels, 48.0 KHz
Субтитры: SRT

Подробные технические данные

Format : MatroskaFormat version : Version 4 / Version 2File size : 2.18 GiBDuration : 1h 37mnOverall bit rate : 3 185 KbpsEncoded date : UTC 2013-10-21 05:29:08Writing application : mkvmerge v6.4.1 ('Omega Point') built on Sep 16 2013 22:05:10Writing library : libebml v1.3.0 + libmatroska v1.4.1
VideoID : 1Format : AVCFormat/Info : Advanced Video CodecFormat profile : High@L4.1Format settings, CABAC : YesFormat settings, ReFrames : 11 framesCodec ID : V_MPEG4/ISO/AVCDuration : 1h 37mnBit rate : 2 415 KbpsWidth : 1 040 pixelsHeight : 560 pixelsDisplay aspect ratio : 1.85:1Frame rate mode : ConstantFrame rate : 23.976 fpsColor space : YUVChroma subsampling : 4:2:0Bit depth : 8 bitsScan type : ProgressiveBits/(Pixel*Frame) : 0.173Stream size : 1.61 GiB (74%)Writing library : x264 core 138 r2358 9e941d1Encoding settings : cabac=1 / ref=11 / deblock=1:-2:-1 / analyse=0x3:0x133 / me=umh / subme=11 / psy=1 / psy_rd=1.00:0.05 / mixed_ref=1 / me_range=32 / chroma_me=1 / trellis=2 / 8x8dct=1 / cqm=0 / deadzone=21,11 / fast_pskip=0 / chroma_qp_offset=-3 / threads=12 / lookahead_threads=2 / sliced_threads=0 / nr=0 / decimate=1 / interlaced=0 / bluray_compat=0 / constrained_intra=0 / bframes=8 / b_pyramid=2 / b_adapt=2 / b_bias=0 / direct=3 / weightb=1 / open_gop=0 / weightp=2 / keyint=250 / keyint_min=23 / scenecut=40 / intra_refresh=0 / rc_lookahead=60 / rc=2pass / mbtree=1 / bitrate=2415 / ratetol=1.0 / qcomp=0.60 / qpmin=0 / qpmax=69 / qpstep=4 / cplxblur=20.0 / qblur=0.5 / ip_ratio=1.40 / aq=1:1.00Language : EnglishDefault : YesForced : No
Audio #1ID : 2Format : AC-3Format/Info : Audio Coding 3Mode extension : CM (complete main)Format settings, Endianness : BigCodec ID : A_AC3Duration : 1h 37mnBit rate mode : ConstantBit rate : 384 KbpsChannel(s) : 6 channelsChannel positions : Front: L C R, Side: L R, LFESampling rate : 48.0 KHzBit depth : 16 bitsCompression mode : LossyStream size : 269 MiB (12%)Title : Rus (Dub)Language : RussianDefault : YesForced : No
Audio #2ID : 3Format : AC-3Format/Info : Audio Coding 3Mode extension : CM (complete main)Format settings, Endianness : BigCodec ID : A_AC3Duration : 1h 37mnBit rate mode : ConstantBit rate : 384 KbpsChannel(s) : 6 channelsChannel positions : Front: L C R, Side: L R, LFESampling rate : 48.0 KHzBit depth : 16 bitsCompression mode : LossyStream size : 269 MiB (12%)Title : Eng (Original)Language : EnglishDefault : NoForced : No
Text #1ID : 4Format : UTF-8Codec ID : S_TEXT/UTF8Codec ID/Info : UTF-8 Plain TextTitle : Rus (Forced)Language : RussianDefault : YesForced : No
Text #2ID : 5Format : UTF-8Codec ID : S_TEXT/UTF8Codec ID/Info : UTF-8 Plain TextTitle : RusLanguage : RussianDefault : NoForced : No
Text #3ID : 6Format : UTF-8Codec ID : S_TEXT/UTF8Codec ID/Info : UTF-8 Plain TextTitle : EngLanguage : EnglishDefault : NoForced : No

Скриншоты

Скачать

Скачать торрент! Гадкий я 2 / Despicable Me 2 (Пьер Соффин / Pierre Coffin, Крис Рено / Chris Renaud) [2013, мультфильм, комедия, криминал, приключения, семейн, BDRip-AVC] Dub + Rus, Eng Sub

Как скачивать? · Что такое торрент? · Рейтинг и ограничения

Сайт не распространяет и не хранит электронные версии произведений, а лишь предоставляет доступ к создаваемому пользователями каталогу ссылок на торрент-файлы, которые содержат только списки хеш-сумм

[Профиль] [ЛС]
Показать сообщения:    
Ответить на тему

Текущее время: Сегодня 04:04

Часовой пояс: GMT + 4



Вы не можете начинать темы
Вы не можете отвечать на сообщения
Вы не можете редактировать свои сообщения
Вы не можете удалять свои сообщения
Вы не можете голосовать в опросах
Вы не можете прикреплять файлы к сообщениям
Вы не можете скачивать файлы