Извратная маска / Маска извращенца / Трусонюх / Хентай Камен / HK Hentai Kamen (Юити Фукуда / Yuuichi Fukuda) [2013, Япония, комедия, боевик, комикс, DVDRip-AVC] VO (den904) + Sub (Rus, Eng)

Ответить на тему
 
Автор Сообщение

user ®

Стаж: 11 лет

Сообщений: 15151

Пост Пост: #1 от 21-Окт-2013 10:20

[Цитировать]

Извратная маска / Маска извращенца /
Трусонюх/ Хентай Камен /
HK Hentai Kamen
-Страна: Япония
Жанр: комедия, боевик, комикс
Год выпуска: 2013
Продолжительность: 01:45:27
Перевод: Одноголосый закадровый den904
Cубтитры: русские, английские
Оригинальная аудиодорожка: японская-Режиссер: Юити Фукуда / Yuuichi Fukuda
В ролях: Рёхэй Судзуки, Сюнсукэ Дайто, Наруси Икеда, Нана Катасе, Цуёси Муро, Шун Огури, Ёсинори Окада, Джиро Сато, Фумика Симидзу, Такаши Цукамото-Описание:Ученик средней школы Сикидзо Кёсуки является самым талантливым членом клуба кэмпо. Его покойный отец был детективом, и парень разделяет сильное чувство правосудия свего отца. Однажды, он спасает от хулиганов девушку по имени Химено Айко, в которую влюбляется с первого взгляда, но сбегает неузнанным ею. Когда при ограблении банка группа преступников взяла в заложники Айко, Кёсуке снова кидается спасти девушку, а чтобы не быть узнанным преступниками, парню надо скрыть лицо. Но, когда он случайно, вместо обычной маски, надевает на голову женские трусики, то с ним случается трансформация. Ведь он смог пробудить 100% скрытого потенциала своего тела и стать супер героем. Это необычная трансформация была передана ему на генном уровне от его родителей (а ведь семейка та еще: отец - мазохист, а мать - садистка). Кёсуке использует свою силу "Маски извращенца", чтобы победить преступников и сохранить любимую. Однако, парень не знает, что его неприятности только начались...-Доп. инфо: За русские субтитры спасибо [url=http://***/forum/viewtopic.php?t=4515688]Waver_Velvet[/url], всё прочее из сети Видеоряд выбирал наилучший, так что мелкий недокроп не помешает просмотру. Оригинальную AAC стерео дорожку, которая была в исходнике, выкинул (всегда можно пережать, при необходимости).-
-Качество видео: DVDRip-AVC
Формат видео: MKV
Видео: AVC, 720x480@854x480, 1608 Kbps, 23.976 fps
Аудио 1: AC3, 48000 Hz, 192 Kbps, 2.0 channels - den904
Аудио 2: AC3, 48000 Hz, 448 Kbps, 5.1 channels - Original
Формат субтитров: softsub (SRT) - русские, английские-

Скриншоты


Резервные скриншоты



-

MediaInfo

Format : Matroska
Format version : Version 4 / Version 2
File size : 1.69 GiB
Duration : 1h 45mn
Overall bit rate : 2 293 Kbps
Movie name : Извратная маска / HK Hentai Kamen (2013) DVDRip-AVC
Encoded date : UTC 2013-10-20 20:58:33
Writing application : mkvmerge v6.4.1 ('Omega Point') built on Sep 16 2013 22:05:10
Writing library : libebml v1.3.0 + libmatroska v1.4.1
Attachment : Yes
Video
ID : 1
Format : AVC
Format/Info : Advanced Video Codec
Format profile : High@L3.0
Format settings, CABAC : Yes
Format settings, ReFrames : 6 frames
Codec ID : V_MPEG4/ISO/AVC
Duration : 1h 45mn
Bit rate : 1 608 Kbps
Width : 720 pixels
Height : 480 pixels
Display aspect ratio : 16:9
Original display aspect ratio : 16:9
Frame rate : 23.976 fps
Standard : NTSC
Color space : YUV
Chroma subsampling : 4:2:0
Bit depth : 8 bits
Scan type : Progressive
Bits/(Pixel*Frame) : 0.194
Stream size : 1.18 GiB (70%)
Language : Japanese
Default : Yes
Forced : No
Audio #1
ID : 2
Format : AC-3
Format/Info : Audio Coding 3
Mode extension : CM (complete main)
Codec ID : A_AC3
Duration : 1h 45mn
Bit rate mode : Constant
Bit rate : 192 Kbps
Channel(s) : 2 channels
Channel positions : Front: L R
Sampling rate : 48.0 KHz
Bit depth : 16 bits
Compression mode : Lossy
Stream size : 145 MiB (8%)
Title : DeadSno & den904
Language : Russian
Default : Yes
Forced : No
Audio #2
ID : 3
Format : AC-3
Format/Info : Audio Coding 3
Mode extension : CM (complete main)
Codec ID : A_AC3
Duration : 1h 45mn
Bit rate mode : Constant
Bit rate : 448 Kbps
Channel(s) : 6 channels
Channel positions : Front: L C R, Side: L R, LFE
Sampling rate : 48.0 KHz
Bit depth : 16 bits
Compression mode : Lossy
Stream size : 338 MiB (20%)
Title : Original
Language : Japanese
Default : No
Forced : No
Text #1
ID : 4
Format : UTF-8
Codec ID : S_TEXT/UTF8
Codec ID/Info : UTF-8 Plain Text
Title : by Waver Velvet
Language : Russian
Default : No
Forced : No
Text #2
ID : 5
Format : UTF-8
Codec ID : S_TEXT/UTF8
Codec ID/Info : UTF-8 Plain Text
Language : English
Default : No
Forced : No
Menu
00:00:00.000 : en:Chapter 01
00:06:02.067 : en:Chapter 02
00:13:33.634 : en:Chapter 03
00:21:59.568 : en:Chapter 04
00:31:47.469 : en:Chapter 05
00:41:28.370 : en:Chapter 06
00:54:36.403 : en:Chapter 07
01:07:55.904 : en:Chapter 08
01:17:00.004 : en:Chapter 09
01:24:55.705 : en:Chapter 10
01:35:27.472 : en:Chapter 11
01:41:01.505 : en:Chapter 12
Скачать

Скачать торрент! Извратная маска / Маска извращенца / Трусонюх / Хентай Камен / HK Hentai Kamen (Юити Фукуда / Yuuichi Fukuda) [2013, Япония, комедия, боевик, комикс, DVDRip-AVC] VO (den904) + Sub (Rus, Eng)

Как скачивать? · Что такое торрент? · Рейтинг и ограничения

Сайт не распространяет и не хранит электронные версии произведений, а лишь предоставляет доступ к создаваемому пользователями каталогу ссылок на торрент-файлы, которые содержат только списки хеш-сумм

[Профиль] [ЛС]
Показать сообщения:    
Ответить на тему

Текущее время: Сегодня 17:22

Часовой пояс: GMT + 4



Вы не можете начинать темы
Вы не можете отвечать на сообщения
Вы не можете редактировать свои сообщения
Вы не можете удалять свои сообщения
Вы не можете голосовать в опросах
Вы не можете прикреплять файлы к сообщениям
Вы не можете скачивать файлы