Человек из стали / Man of Steel (Зак Снайдер / Zack Snyder) [2013, США, Канада, Великобритания, фантастика, фэнтези, боевик, BDRip 720p] Dub + Original (Eng) + Subs (Rus, Eng)

Ответить на тему
 
Автор Сообщение

user ®

Стаж: 7 лет 7 месяцев

Сообщений: 20008

Пост Пост: #1 от 21-Окт-2013 02:30

[Цитировать]

Человек из стали / Man of Steel

-
-Страна: США, Канада, Великобритания
Студия: DC Entertainment, Legendary Pictures, Syncopy, Third Act Productions, Warner Bros. Pictures
Жанр: фантастика, фэнтези, боевик, приключения
Год выпуска: 2013
Продолжительность: 02:23:03--Перевод: Профессиональный (дублированный) Blu-ray
Cубтитры: русские (forced, full), английские (full, SDH)
Оригинальная аудиодорожка: английский--Режиссер: Зак Снайдер / Zack Snyder
В ролях: Генри Кавилл, Эми Адамс, Майкл Шеннон, Кевин Костнер, Дайан Лэйн, Лоуренс Фишборн, Антье Трауэ, Айелет Зурер, Расселл Кроу, Гарри Дж. Ленникс, Ричард Шифф, Кристофер Мелони, Дилан Спрейберри, Купер Тимберлайн, Ричард Цетрон, МакКензи Грэй, Джулиан Ричингс, Мэри Блэк, Саманта Джоо--Описание: Кларк Кент/Кал-Эл — молодой человек, который чувствует себя чужаком из-за своей невероятной силы. Много лет назад он был отправлен на Землю с развитой планеты Криптон, и теперь задается вопросом: зачем?
Воспитанный приемными родителями Мартой и Джонатаном Кентами, Кларк знает: обладать сверхспособностями — значит принимать сложные решения. Но когда человечество более всего нуждается в стабильности, оно подвергается нападению. Сможет ли герой восстановить мир, или воспользуется своей силой для того, чтобы окончательно его разрушить?--imdb | kinopoisk | Сэмпл--Тип релиза: BDRip 720p [Man of Steel 2013 720p BluRay DTS x264-TayTO]
Контейнер: MKV
Видео: MPEG-4 AVC / 8283 kbps / 1280x534 / 23,976 fps / 2,40:1 / High Profile 4.1
Аудио 1: AC3 / 5.1 / 48 kHz / 640 kbps / 16 bits |Dub, Blu-ray|
Аудио 2: DTS / 5.1 / 48 kHz / 1509 kbps / 24 bits |original|
Формат субтитров: softsub [SRT]

MediaInfo

Общее
Уникальный идентификатор : 187070500930415620086234901608313486448 (0x8CBC77CB440EED1BB25D9AC1DEC97C70)
Полное имя : G:\HD\Человек из стали.2013.BDRip.(720p).mkv
Формат : Matroska
Версия формата : Version 2
Размер файла : 10,6 Гбайт
Продолжительность : 2 ч. 23 м.
Общий поток : 10,6 Мбит/сек
Дата кодирования : UTC 2013-10-20 06:45:00
Программа кодирования : mkvmerge v5.8.0 ('No Sleep / Pillow') built on Sep 2 2012 15:37:04
Библиотека кодирования : libebml v1.2.3 + libmatroska v1.3.0
Attachment : Yes
Видео
Идентификатор : 1
Формат : AVC
Формат/Информация : Advanced Video Codec
Профиль формата : High@L4.1
Параметр CABAC формата : Да
Параметр ReFrames формата : 12 кадров
Идентификатор кодека : V_MPEG4/ISO/AVC
Продолжительность : 2 ч. 23 м.
Битрейт : 8283 Кбит/сек
Ширина : 1280 пикселей
Высота : 534 пикселя
Соотношение сторон : 2,40:1
Режим частоты кадров : Постоянный
Частота кадров : 23,976 кадра/сек
Цветовое пространство : YUV
Субдискретизация насыщенности : 4:2:0
Битовая глубина : 8 бит
Тип развёртки : Прогрессивная
Бит/(Пиксели*Кадры) : 0.505
Размер потока : 8,28 Гбайт (78%)
Заголовок : Man of Steel 2013 720p BluRay DTS x264-TayTO
Библиотека кодирования : x264 core 138 r2358 9e941d1
Настройки программы : cabac=1 / ref=12 / deblock=1:-3:-3 / analyse=0x3:0x133 / me=tesa / subme=11 / psy=1 / psy_rd=1.05:0.00 / mixed_ref=1 / me_range=16 / chroma_me=1 / trellis=2 / 8x8dct=1 / cqm=0 / deadzone=21,11 / fast_pskip=0 / chroma_qp_offset=-2 / threads=12 / lookahead_threads=2 / sliced_threads=0 / nr=0 / decimate=1 / interlaced=0 / bluray_compat=0 / constrained_intra=0 / bframes=7 / b_pyramid=2 / b_adapt=2 / b_bias=0 / direct=3 / weightb=1 / open_gop=0 / weightp=2 / keyint=250 / keyint_min=23 / scenecut=40 / intra_refresh=0 / rc=crf / mbtree=0 / crf=17.2 / qcomp=0.70 / qpmin=0 / qpmax=69 / qpstep=4 / ip_ratio=1.40 / pb_ratio=1.30 / aq=1:0.80 / zones=8079,8271,b=1.5/10285,10381,b=1.2/10429,10741,b=1.5/11124,11340,b=1.5/16711,16807,b=1.3/20235,20619,b=1.2/22345,22465,b=1.2/13090,13138,b=1.5/13306,13330,b=1.5/124986,125778,b=1.5/128871,129806,b=1.3/133714,134025,b=1.2/141122,141170,b=1.2/153542,153806,b=1.2/157282,157666,b=1.2/161598,162365,b=1.5/163588,164091,b=1.5/164259,165050,b=1.5/168815,169126,b=1.2/170948,172435,b=1.2/176775,179508,b=1.2/180347,182769,b=1.2
Язык : English
Default : Да
Forced : Нет
Коэффициенты матрицы : BT.709
Аудио #1
Идентификатор : 2
Формат : AC-3
Формат/Информация : Audio Coding 3
Расширение режима : CM (complete main)
Параметр Endianness формата : Big
Идентификатор кодека : A_AC3
Продолжительность : 2 ч. 23 м.
Вид битрейта : Постоянный
Битрейт : 640 Кбит/сек
Каналы : 6 каналов
Расположение каналов : Front: L C R, Side: L R, LFE
Частота : 48,0 КГц
Битовая глубина : 16 бит
Метод сжатия : С потерями
Размер потока : 655 Мбайт (6%)
Заголовок : Dub, Blu-ray
Язык : Russian
Default : Да
Forced : Нет
Аудио #2
Идентификатор : 3
Формат : DTS
Формат/Информация : Digital Theater Systems
Режим : 16
Параметр Endianness формата : Big
Идентификатор кодека : A_DTS
Продолжительность : 2 ч. 23 м.
Вид битрейта : Постоянный
Битрейт : 1509 Кбит/сек
Каналы : 6 каналов
Расположение каналов : Front: L C R, Side: L R, LFE
Частота : 48,0 КГц
Битовая глубина : 24 бит
Метод сжатия : С потерями
Размер потока : 1,51 Гбайт (14%)
Язык : English
Default : Нет
Forced : Нет
Текст #1
Идентификатор : 4
Формат : UTF-8
Идентификатор кодека : S_TEXT/UTF8
Идентификатор кодека/Информация : UTF-8 Plain Text
Заголовок : forced
Язык : Russian
Default : Да
Forced : Нет
Текст #2
Идентификатор : 5
Формат : UTF-8
Идентификатор кодека : S_TEXT/UTF8
Идентификатор кодека/Информация : UTF-8 Plain Text
Заголовок : full
Язык : Russian
Default : Нет
Forced : Нет
Текст #3
Идентификатор : 6
Формат : UTF-8
Идентификатор кодека : S_TEXT/UTF8
Идентификатор кодека/Информация : UTF-8 Plain Text
Заголовок : full
Язык : English
Default : Нет
Forced : Нет
Текст #4
Идентификатор : 7
Формат : UTF-8
Идентификатор кодека : S_TEXT/UTF8
Идентификатор кодека/Информация : UTF-8 Plain Text
Заголовок : SDH
Язык : English
Default : Нет
Forced : Нет
Меню
00:00:00.000 : en:00:00:00.000
00:11:16.968 : en:00:11:16.968
00:20:01.450 : en:00:20:01.450
00:30:09.474 : en:00:30:09.474
00:39:21.609 : en:00:39:21.609
00:48:57.643 : en:00:48:57.643
00:59:03.415 : en:00:59:03.415
01:08:57.884 : en:01:08:57.884
01:17:35.109 : en:01:17:35.109
01:28:36.186 : en:01:28:36.186
01:40:47.792 : en:01:40:47.792
01:50:55.858 : en:01:50:55.858
02:00:53.580 : en:02:00:53.580
02:10:13.556 : en:02:10:13.556
02:12:49.920 : en:02:12:49.920

Скриншоты


Man of Steel 2013 720p BluRay DTS x264-TayTO

MOVIE iNFO
GENRE.........: Action, Adventure, Fantasy, Sci-Fi
IMDB RATING...: 7.6/10 from 243,651 users
LINK..........: http://www.imdb.com/title/tt0770828
RELEASE iNFO
RELEASE NAME..: Man of Steel 2013 720p BluRay DTS x264-TayTO
ENCODED DATE..: UTC 2013-10-19 10:23:35
RELEASE SIZE..: 10.00 GiB
RUNTIME.......: 2h 23mn
VIDEO CODEC...: x264, High@L4.1
FRAMERATE.....: 23.976 fps
BITRATE.......: 8 296 Kbps
RESOLUTION....: 1280x534
AUDIO.........: English DTS 5.1@1 510 Kbps
CHAPTERS......: Yes
SUBTITLES.....: English,English,French,Italian,Spanish,Dutch,Danish,Finnish,Icelandic,Norwegian,Swedish,Vietnamese
SOURCE........: Man of Steel 2013 1080p Blu-ray AVC DTS-HD MA 7.1-TRUEDEF (Thx Sabooo!)
ENCODER.......: v0danh@TayTO
NOTES
Banding and blocking were removed a few scenes.
x264 iNFO
x264 [info]: frame I:1526 Avg QP:15.39 size:106368
x264 [info]: frame P:51421 Avg QP:16.99 size: 68437
x264 [info]: frame B:152830 Avg QP:19.75 size: 35531
x264 [info]: consecutive B-frames: 4.7% 4.8% 8.9% 21.4% 19.9% 28.8% 7.4% 4.2%
encoded 205777 frames, 3.48 fps, 8493.04 kb/s

Дополнительно

Спасибо hdclub за дубляж и русские сабы.
Скачать

Скачать торрент!

Как скачивать? · Что такое торрент? · Рейтинг и ограничения

Сайт не распространяет и не хранит электронные версии произведений, а лишь предоставляет доступ к создаваемому пользователями каталогу ссылок на торрент-файлы, которые содержат только списки хеш-сумм

[Профиль] [ЛС]
Показать сообщения:    
Ответить на тему

Текущее время: Сегодня 12:07

Часовой пояс: GMT + 4



Вы не можете начинать темы
Вы не можете отвечать на сообщения
Вы не можете редактировать свои сообщения
Вы не можете удалять свои сообщения
Вы не можете голосовать в опросах
Вы не можете прикреплять файлы к сообщениям
Вы не можете скачивать файлы