Откровение / Ijaazat (Сампуран Сингх Гульзар / Gulzar) [1987, Индия, Мелодрама, DVDRip] DVO (Арена)

Ответить на тему
 
Автор Сообщение

user ®

Стаж: 12 лет

Сообщений: 15124

Пост Пост: #1 от 19-Окт-2013 12:15

[Цитировать]

Откровение / Ijaazat
Страна: Индия
Жанр: Мелодрама
Год выпуска: 1987
Продолжительность: 02:16:20
Перевод: Профессиональный (двухголосый закадровый) Арена
Cубтитры: нет
Режиссер: Сампуран Сингх Гульзар / Gulzar
В ролях: Рекха, Насируддин Шах, Анурадха Пател, Рам Мохан, Сулабха Дешпанде, Дина Патхак, Рита Рэни Кол, Ашок Мехта
Описание: Случайно встретившись, Садха и Махендра вспоминают свою прошлую жизнь и рассказывают о настоящей. Когда-то они были женаты и любили друг друга, но их брак распался из-за неверности Махендры. Теперь он понимает, что совершил ошибку. Но годы не вернуть…
Доп. информация: Исходник DVD-5(СПАСИБО! василисса)
Сэмпл: http://multi-up.com/914590
Качество видео: DVDRip
Формат видео: AVI
Видео: XviD build 50, 624x472 (1.32:1), 23.976 fps, 1395 kbps avg
Аудио: MPEG Layer 3, 48 kHz, 2/0 (L,R) ch, 128.00 kbps avg

MediaInfo

General
Complete name : D:\Otkrovenie.1987.DVDRip-Dego.avi
Format : AVI
Format/Info : Audio Video Interleave
File size : 1.46 GiB
Duration : 2h 16mn
Overall bit rate : 1 533 Kbps
Writing application : VirtualDubMod 1.5.10.2 (build 2540/release)
Writing library : VirtualDubMod build 2540/release
Video
ID : 0
Format : MPEG-4 Visual
Format profile : AdvancedSimple@L5
Format settings, BVOP : Yes
Format settings, QPel : No
Format settings, GMC : No warppoints
Format settings, Matrix : Default (MPEG)
Codec ID : XVID
Codec ID/Hint : XviD
Duration : 2h 16mn
Bit rate : 1 396 Kbps
Width : 624 pixels
Height : 472 pixels
Display aspect ratio : 4/3
Frame rate : 23.976 fps
Resolution : 24 bits
Colorimetry : 4:2:0
Scan type : Progressive
Bits/(Pixel*Frame) : 0.198
Stream size : 1.33 GiB (91%)
Writing library : XviD 1.2.1 (UTC 2008-12-04)
Audio
ID : 1
Format : MPEG Audio
Format version : Version 1
Format profile : Layer 3
Codec ID : 55
Codec ID/Hint : MP3
Duration : 2h 16mn
Bit rate mode : Constant
Bit rate : 128 Kbps
Channel(s) : 2 channels
Sampling rate : 48.0 KHz
Resolution : 16 bits
Stream size : 125 MiB (8%)
Alignment : Aligned on interleaves
Interleave, duration : 42 ms (1.00 video frame)
Interleave, preload duration : 504 ms
Writing library : LAME3.98r
Encoding settings : -m s -V 4 -q 2 -lowpass 17 -b 128

Скриншоты

Скачать

Скачать торрент! Откровение / Ijaazat (Сампуран Сингх Гульзар / Gulzar) [1987, Индия, Мелодрама, DVDRip] DVO (Арена)

Как скачивать? · Что такое торрент? · Рейтинг и ограничения

Сайт не распространяет и не хранит электронные версии произведений, а лишь предоставляет доступ к создаваемому пользователями каталогу ссылок на торрент-файлы, которые содержат только списки хеш-сумм

[Профиль] [ЛС]
Показать сообщения:    
Ответить на тему

Текущее время: Сегодня 21:55

Часовой пояс: GMT + 4



Вы не можете начинать темы
Вы не можете отвечать на сообщения
Вы не можете редактировать свои сообщения
Вы не можете удалять свои сообщения
Вы не можете голосовать в опросах
Вы не можете прикреплять файлы к сообщениям
Вы не можете скачивать файлы