+1 / +1 (Дэннис Илиадис / Dennis Iliadis) [2013, США, триллер, фантастика, WEB-DL 720p] VO + Original (Eng) + Sub (eng)

Ответить на тему
 
Автор Сообщение

user ®

Стаж: 7 лет 7 месяцев

Сообщений: 20008

Пост Пост: #1 от 15-Окт-2013 21:40

[Цитировать]

+1 : +1«Этого хотят все» Страна: США
Год выпуска: 2013
Жанр: триллер, фантастика
Продолжительность: 01:36:12
Перевод: Одноголосый закадровый [VANO]
русские субтитры: нет-Режиссёр: Дэннис Илиадис : Dennis Iliadis
В главных ролях: Риз Уэйкфилд, Логан Миллер, Эшли Хиншоу, Натали Холл, Роэн Кимал, Адам Дэвид Томпсон, Рональд Огден, Бернард Джонс, Брэд Миллс, Эйприл Биллингсли-Описание: Трое друзей из колледжа отправляются на главную вечеринку десятилетия. Каждый ищет там что-то свое: любовь, секс или новые знакомства. Но праздник превращается в хаос, когда по соседству с домом, где все веселятся, падает метеорит.- -Качество: WEB-DL 720p
Формат: MKV
Видео кодек: AVC
Аудио кодек: АС3
Видео: 1280x532, 23.976 fps, ~3 890 kbps avg, 0.238 bit/pixel
Аудио #1: [RUS] 48 kHz, AC3 Dolby Digital, 3/2 (L,C,R,l,r) + LFE ch, ~384 kbps
Аудио #2: [ENG] 48 kHz, AC3 Dolby Digital, 3/2 (L,C,R,l,r) + LFE ch, ~384 kbps
субтитры: английские
навигация по главам: 10 глав

скриншоты

MediaInfo

Общее
Уникальный идентификатор : 247014745880881071748662618583755445771 (0xB9D54F409DD1ACB2B2F0FFBA01E0D60B)
Полное имя : D:\Im\+1\+1.2013.WEB-DL 720p.mkv
Формат : Matroska
Версия формата : Version 4 / Version 2
Размер файла : 3,19 Гбайт
Продолжительность : 1 ч. 36 м.
Общий поток : 4753 Кбит/сек
Дата кодирования : UTC 2013-10-14 20:53:51
Программа кодирования : mkvmerge v6.4.1 ('Omega Point') built on Sep 16 2013 22:05:10
Библиотека кодирования : libebml v1.3.0 + libmatroska v1.4.1
Видео
Идентификатор : 1
Формат : AVC
Формат/Информация : Advanced Video Codec
Профиль формата : Main@L3.1
Параметр CABAC формата : Нет
Параметр ReFrames формата : 2 кадра
Идентификатор кодека : V_MPEG4/ISO/AVC
Продолжительность : 1 ч. 36 м.
Битрейт : 3890 Кбит/сек
Ширина : 1280 пикселей
Высота : 532 пикселя
Соотношение сторон : 2,40:1
Частота кадров : 23,976 кадра/сек
Цветовое пространство : YUV
Субдискретизация насыщенности : 4:2:0
Битовая глубина : 8 бит
Тип развёртки : Прогрессивная
Бит/(Пиксели*Кадры) : 0.238
Размер потока : 2,61 Гбайт (82%)
Язык : English
Default : Да
Forced : Нет
Основные цвета : BT.709-5, BT.1361, IEC 61966-2-4, SMPTE RP177
Характеристики трансфера : BT.709-5, BT.1361
Коэффициенты матрицы : BT.709-5, BT.1361, IEC 61966-2-4 709, SMPTE RP177
Аудио #1
Идентификатор : 2
Формат : AC-3
Формат/Информация : Audio Coding 3
Расширение режима : CM (complete main)
Идентификатор кодека : A_AC3
Продолжительность : 1 ч. 36 м.
Вид битрейта : Постоянный
Битрейт : 384 Кбит/сек
Каналы : 6 каналов
Расположение каналов : Front: L C R, Side: L R, LFE
Частота : 48,0 КГц
Битовая глубина : 16 бит
Метод сжатия : С потерями
Размер потока : 264 Мбайт (8%)
Заголовок : VO [VANO]
Язык : Russian
Default : Да
Forced : Нет
Аудио #2
Идентификатор : 3
Формат : AC-3
Формат/Информация : Audio Coding 3
Расширение режима : CM (complete main)
Идентификатор кодека : A_AC3
Продолжительность : 1 ч. 36 м.
Вид битрейта : Постоянный
Битрейт : 384 Кбит/сек
Каналы : 6 каналов
Расположение каналов : Front: L C R, Side: L R, LFE
Частота : 48,0 КГц
Битовая глубина : 16 бит
Метод сжатия : С потерями
Размер потока : 264 Мбайт (8%)
Заголовок : ENG
Язык : English
Default : Нет
Forced : Нет
Текст
Идентификатор : 4
Формат : UTF-8
Идентификатор кодека : S_TEXT/UTF8
Идентификатор кодека/Информация : UTF-8 Plain Text
Заголовок : Eng Sub
Язык : English
Default : Нет
Forced : Нет
Меню
00:00:00.000 : en:Chapter 1
00:07:59.000 : en:Chapter 2
00:19:14.000 : en:Chapter 3
00:28:03.000 : en:Chapter 4
00:40:33.000 : en:Chapter 5
00:50:00.000 : en:Chapter 6
01:01:34.000 : en:Chapter 7
01:11:19.000 : en:Chapter 8
01:20:14.000 : en:Chapter 9
01:30:50.000 : en:Chapter 10
Скачать

Скачать торрент!

Как скачивать? · Что такое торрент? · Рейтинг и ограничения

Сайт не распространяет и не хранит электронные версии произведений, а лишь предоставляет доступ к создаваемому пользователями каталогу ссылок на торрент-файлы, которые содержат только списки хеш-сумм

[Профиль] [ЛС]
Показать сообщения:    
Ответить на тему

Текущее время: Сегодня 02:16

Часовой пояс: GMT + 4



Вы не можете начинать темы
Вы не можете отвечать на сообщения
Вы не можете редактировать свои сообщения
Вы не можете удалять свои сообщения
Вы не можете голосовать в опросах
Вы не можете прикреплять файлы к сообщениям
Вы не можете скачивать файлы