Тайный поклонник / Secret Admirer (Дэвид Гринуолт / David Greenwalt) [1985, США, комедия, мелодрама, HDTV 1080i] DVO (НТВ+) + DVO (студия ELROM) + VO + Sub Rus + Sub Eng + Original Eng

Ответить на тему
 
Автор Сообщение

user ®

Стаж: 7 лет 7 месяцев

Сообщений: 20008

Пост Пост: #1 от 15-Окт-2013 10:30

[Цитировать]

Тайный поклонник / Secret Admirer
Страна: США
Студия: Orion Pictures Corporation
Жанр: комедия, мелодрама
Год выпуска: 1985
Продолжительность: 01:33:52
Перевод 1: Профессиональный (двухголосый закадровый) НТВ+
Перевод 2: Профессиональный (двухголосый закадровый) студия ELROM
Перевод 3: Одноголосый закадровый Andron1818 по субтитрам муми-тролль
Cубтитры: русские, английские
Оригинальная аудиодорожка: английский
Режиссер: Дэвид Гринуолт / David Greenwalt
В ролях: С. Томас Хауэлл, Келли Престон, Лори Лафлин, Фред Уорд, Ди Уоллес-Стоун, Ли Тейлор-Янг, Клифф Де Янг, Кэйси Семашко, Джеффри Блейк, Родни Пирсон...
Описание: Любовное письмо, написанное школьницей старших классов, попадает не в те руки, после чего начинается серия комических эпизодов. Ее одноклассники, да и родители стали участниками этой милой комедии ошибок.

Доп. информация:
За двухголосый перевод студии ELROM спасибо 25k
За одноголосый перевод спасибо автору Andron1818 и spartac
За оригинальную дорогу спасибо spartac
За русские субтитры спасибо автору муми-тролль и - Джон Коннор -
Тип релиза: HDTV 1080i
Контейнер: MKV
Видео: AVC 1920x1080 (16:9)) 25.0fps Bit rate 6003Kbps
Аудио 1: MP2 48.0 KHz 2ch. 192kbps rus - НТВ+
Аудио 2: AC3 48.0 KHz 2ch. 192kbps rus - ELROM
Аудио 3: AC3 48.0 KHz 2ch. 192kbps rus - Andron1818
Аудио 4: AC3 48.0 KHz 2ch. 192kbps eng

MediaInfo

Общее
Уникальный идентификатор : 248771678793534637822267324974099594867 (0xBB27AEBB9F6906C5B197DA383603FE73)
Полное имя : E:\torrent\Taynyi poklonnik_HDTV 1080i.mkv
Формат : Matroska
Версия формата : Version 4 / Version 2
Размер файла : 4,53 Гбайт
Продолжительность : 1 ч. 33 м.
Общий поток : 6911 Кбит/сек
Дата кодирования : UTC 2013-10-14 23:35:47
Программа кодирования : mkvmerge v6.4.1 ('Omega Point') built on Sep 16 2013 22:05:10
Библиотека кодирования : libebml v1.3.0 + libmatroska v1.4.1
Видео
Идентификатор : 1
Формат : AVC
Формат/Информация : Advanced Video Codec
Профиль формата : High@L4.0
Параметр CABAC формата : Да
Параметр ReFrames формата : 3 кадра
Параметр GOP формата : M=4, N=32
Идентификатор кодека : V_MPEG4/ISO/AVC
Продолжительность : 1 ч. 33 м.
Битрейт : 6005 Кбит/сек
Ширина : 1920 пикселей
Высота : 1080 пикселей
Соотношение сторон : 16:9
Режим частоты кадров : Постоянный
Частота кадров : 25,000 кадров/сек
Стандарт вещания : Component
Цветовое пространство : YUV
Субдискретизация насыщенности : 4:2:0
Битовая глубина : 8 бит
Тип развёртки : Чересстрочная
Порядок развёртки : Верхнее поле первое
Бит/(Пиксели*Кадры) : 0.116
Размер потока : 3,94 Гбайт (87%)
Заголовок : Taynyi poklonnik_HDTV 1080i
Default : Да
Forced : Нет
Основные цвета : BT.709
Характеристики трансфера : BT.709
Коэффициенты матрицы : BT.709
Аудио #1
Идентификатор : 2
Формат : MPEG Audio
Версия формата : Version 1
Профиль формата : Layer 2
Идентификатор кодека : A_MPEG/L2
Идентификатор кодека/Подсказка : MP2
Продолжительность : 1 ч. 33 м.
Вид битрейта : Постоянный
Битрейт : 192 Кбит/сек
Каналы : 2 канала
Частота : 48,0 КГц
Метод сжатия : С потерями
Размер потока : 129 Мбайт (3%)
Заголовок : Taynyi poklonnik_MP2_DVO_NTV+
Язык : Russian
Default : Да
Forced : Нет
Аудио #2
Идентификатор : 3
Формат : AC-3
Формат/Информация : Audio Coding 3
Расширение режима : CM (complete main)
Параметр Endianness формата : Big
Идентификатор кодека : A_AC3
Продолжительность : 1 ч. 33 м.
Вид битрейта : Постоянный
Битрейт : 192 Кбит/сек
Каналы : 2 канала
Расположение каналов : Front: L R
Частота : 48,0 КГц
Битовая глубина : 16 бит
Метод сжатия : С потерями
Размер потока : 129 Мбайт (3%)
Заголовок : Taynyi poklonnik_AC3_DVO_ELROM
Язык : Russian
Default : Нет
Forced : Нет
Аудио #3
Идентификатор : 4
Формат : AC-3
Формат/Информация : Audio Coding 3
Расширение режима : CM (complete main)
Параметр Endianness формата : Big
Идентификатор кодека : A_AC3
Продолжительность : 1 ч. 33 м.
Вид битрейта : Постоянный
Битрейт : 192 Кбит/сек
Каналы : 2 канала
Расположение каналов : Front: L R
Частота : 48,0 КГц
Битовая глубина : 16 бит
Метод сжатия : С потерями
Размер потока : 129 Мбайт (3%)
Заголовок : Taynyi poklonnik_AC3_VO_Andron1818
Язык : Russian
Default : Нет
Forced : Нет
Аудио #4
Идентификатор : 5
Формат : AC-3
Формат/Информация : Audio Coding 3
Расширение режима : CM (complete main)
Параметр Endianness формата : Big
Идентификатор кодека : A_AC3
Продолжительность : 1 ч. 33 м.
Вид битрейта : Постоянный
Битрейт : 192 Кбит/сек
Каналы : 2 канала
Расположение каналов : Front: L R
Частота : 48,0 КГц
Битовая глубина : 16 бит
Метод сжатия : С потерями
Размер потока : 129 Мбайт (3%)
Заголовок : Taynyi poklonnik_AC3_original eng
Язык : English
Default : Нет
Forced : Нет
Текст #1
Идентификатор : 6
Формат : UTF-8
Идентификатор кодека : S_TEXT/UTF8
Идентификатор кодека/Информация : UTF-8 Plain Text
Заголовок : Taynyi poklonnik_subtitle rus
Язык : Russian
Default : Нет
Forced : Нет
Текст #2
Идентификатор : 7
Формат : UTF-8
Идентификатор кодека : S_TEXT/UTF8
Идентификатор кодека/Информация : UTF-8 Plain Text
Заголовок : Taynyi poklonnik_subtitle eng
Язык : English
Default : Нет
Forced : Нет

Скриншот с названием фильма

Скриншоты


Сравнение с DVD


Скачать

Скачать торрент!

Как скачивать? · Что такое торрент? · Рейтинг и ограничения

Сайт не распространяет и не хранит электронные версии произведений, а лишь предоставляет доступ к создаваемому пользователями каталогу ссылок на торрент-файлы, которые содержат только списки хеш-сумм

[Профиль] [ЛС]
Показать сообщения:    
Ответить на тему

Текущее время: Сегодня 00:37

Часовой пояс: GMT + 4



Вы не можете начинать темы
Вы не можете отвечать на сообщения
Вы не можете редактировать свои сообщения
Вы не можете удалять свои сообщения
Вы не можете голосовать в опросах
Вы не можете прикреплять файлы к сообщениям
Вы не можете скачивать файлы