Четвертый пассажир (Игорь Ромащенко) [2013, мелодрама, HDTVRip 720p]

Ответить на тему
 
Автор Сообщение

user ®

Стаж: 7 лет 7 месяцев

Сообщений: 20008

Пост Пост: #1 от 15-Окт-2013 02:40

[Цитировать]

Четвертый пассажир
Выпущено: Россия, КК "Русское", ЗАО "Студия Олимп"
Жанр: мелодрама
Год выпуска: 2013
Продолжительность: 01:34:29
Субтитры: нет
Режиссер: Игорь Ромащенко
В ролях: Татьяна Черкасова, Алексей Зубков, Виктория Стивина, Сергей Юшкевич, Наталья Лукеичева, Илья Любимов, Андрей Межулис, Степан Шебуняев, Сергей Греков, Николай Сахаров, Елена Аминова, Мохамед Абдель Фаттах, Анна Капалева, Артём Федотов, Иван Пилипенко
Описание: Ульяна, школьная учительница, похожа на героиню советских фильмов — она независима, принципиальна и одинока, хоть и хороша собой. Ульяна разведена, ее сын-студент уже не нуждается в опеке, и единственное наполнение жизни женщины — монотонная работа. Вероятно, героиня так и осталась бы в своей привычной колее и не было бы счастья, да несчастье помогло. Решая проблемы сына, Ульяна отправляется в Москву и по пути знакомится с крутым бизнесменом Владимиром. Единственная проблема в том, что, боясь оттолкнуть бессребреницу, Владимир представляется простым строителем, а вскоре узнает, что больше, чем богатых мужчин, Ульяна ненавидит только лживых.

Автор рипа / записи: fanatus
Качество видео: HDTVRip 720p
Исходник: Запись с телеканала РОССИЯ HD
Контейнер: MKV
Видео: MPEG-4 AVC, 3500 kbps , 1280x720 (16:9), 25.000 fps, 0.152 bit/pixel
Аудио: AC3, 2 ch, 48 kHz, 192 kbps

MediaInfo

General
Unique ID : 243580369602564512309046949345724059946 (0xB73FDF6DBD6E320CBD8D17033205D12A)
Complete name : F:\Chetvertyj passazhir.2013.x264.HDTVRip.720p.fanatus.mkv
Format : Matroska
Format version : Version 2
File size : 2.44 GiB
Duration : 1h 34mn
Overall bit rate : 3 694 Kbps
Movie name : Chetvertyj passazhir (2013) - fanatus
Encoded date : UTC 2013-10-14 21:11:53
Writing application : mkvmerge v3.4.0 ('Rapunzel') сборка от May 15 2010 09:38:20
Writing library : libebml v0.8.0 + libmatroska v0.9.0
Video
ID : 1
Format : AVC
Format/Info : Advanced Video Codec
Format profile : High@L4.1
Format settings, CABAC : Yes
Format settings, ReFrames : 9 frames
Codec ID : V_MPEG4/ISO/AVC
Duration : 1h 34mn
Bit rate : 3 500 Kbps
Width : 1 280 pixels
Height : 720 pixels
Display aspect ratio : 16:9
Frame rate : 25.000 fps
Color space : YUV
Chroma subsampling : 4:2:0
Bit depth : 8 bits
Scan type : Progressive
Bits/(Pixel*Frame) : 0.152
Stream size : 2.26 GiB (93%)
Title : Chetvertyj passazhir (2013)
Writing library : x264 core 138 r2358 9e941d1
Encoding settings : cabac=1 / ref=9 / deblock=1:-2:-2 / analyse=0x3:0x113 / me=umh / subme=10 / psy=1 / psy_rd=1.00:0.10 / mixed_ref=1 / me_range=32 / chroma_me=1 / trellis=2 / 8x8dct=1 / cqm=0 / deadzone=21,11 / fast_pskip=0 / chroma_qp_offset=-3 / threads=16 / lookahead_threads=2 / sliced_threads=0 / nr=0 / decimate=0 / interlaced=0 / bluray_compat=0 / constrained_intra=0 / bframes=9 / b_pyramid=2 / b_adapt=2 / b_bias=0 / direct=3 / weightb=1 / open_gop=0 / weightp=2 / keyint=250 / keyint_min=25 / scenecut=40 / intra_refresh=0 / rc=2pass / mbtree=0 / bitrate=3500 / ratetol=1.0 / qcomp=0.65 / qpmin=0 / qpmax=69 / qpstep=4 / cplxblur=20.0 / qblur=0.5 / ip_ratio=1.40 / pb_ratio=1.30 / aq=1:0.90
Language : Russian
Default : Yes
Forced : No
Matrix coefficients : BT.709-5, BT.1361, IEC 61966-2-4 709, SMPTE RP177
Audio
ID : 2
Format : AC-3
Format/Info : Audio Coding 3
Mode extension : CM (complete main)
Format settings, Endianness : Big
Codec ID : A_AC3
Duration : 1h 34mn
Bit rate mode : Constant
Bit rate : 192 Kbps
Channel(s) : 2 channels
Channel positions : Front: L R
Sampling rate : 48.0 KHz
Bit depth : 16 bits
Compression mode : Lossy
Stream size : 130 MiB (5%)
Title : Original
Language : Russian
Default : Yes
Forced : No

Скриншот c названием фильма

Скриншоты

Скачать

Скачать торрент!

Как скачивать? · Что такое торрент? · Рейтинг и ограничения

Сайт не распространяет и не хранит электронные версии произведений, а лишь предоставляет доступ к создаваемому пользователями каталогу ссылок на торрент-файлы, которые содержат только списки хеш-сумм

[Профиль] [ЛС]
Показать сообщения:    
Ответить на тему

Текущее время: Сегодня 22:17

Часовой пояс: GMT + 4



Вы не можете начинать темы
Вы не можете отвечать на сообщения
Вы не можете редактировать свои сообщения
Вы не можете удалять свои сообщения
Вы не можете голосовать в опросах
Вы не можете прикреплять файлы к сообщениям
Вы не можете скачивать файлы