Мы здесь больше не живем / We Don\'t Live Here Anymore (Джон Кёрран / John Curran) [2004, США, Канада, драма, мелодрама, WEB-DL 720p] MVO + Sub Eng + Original Eng

Ответить на тему
 
Автор Сообщение

user ®

Стаж: 7 лет 7 месяцев

Сообщений: 20008

Пост Пост: #1 от 15-Окт-2013 02:40

[Цитировать]

Мы здесь больше не живем / We Don't Live Here Anymore Страна: США, Канада
Студия: Front Street Pictures, Renaissance Films
Жанр: драма, мелодрама
Год выпуска: 2004
Продолжительность: 01:38:59
Перевод: Профессиональный (многоголосый закадровый) [DVD R5 - «CP-Digital»]
Cубтитры: английские
Оригинальная аудиодорожка: английский
Режиссер: Джон Кёрран / John Curran
В ролях: Марк Руффало, Лора Дерн, Питер Краузе, Наоми Уоттс, Сэм Чарльз, Хейли Пейдж, Дженнифер Бишоп, Дженнифер Мохинни, Эмбер Ротуэлл, Мэг Роу, Джим Френсис, Марк Бауэр, Патрик Эрли
Описание: Семьи Джека и Хэнка давно вместе. Мужчины преподают в университете, пока их жены Терри и Эдит берегут домашний очаг, и никто не может заподозрить, что на самом деле эти пары объединяет не дружеская привязанность, а отчаяние, предательство и обман.
Невинная интрижка между Джеком и Эдит быстро превращается в тайный роман. Они мечтают о давно утраченном счастье, но что случится, когда их супруги узнают об измене?
Если Хэнк и Терри в отместку поступят так же, в надвигающейся катастрофе никто из них не найдет спасения…- -Тип релиза: WEB-DL 720p
Контейнер: MKV
Видео: MPEG-4 AVC Video, 1280x528 / 2,40:1 (16:9) / ~ 3971 kbps / 23,976 fps / Main@L3.1
Аудио 1: Russian: AC3, 6 ch, 448 kbps, 48 kHz
Аудио 2: English: AC3, 6 ch, 384 kbps, 48 kHz
Формат субтитров: softsub (SRT)
Главы: подписаны

MediaInfo

Общее
Уникальный идентификатор : 210034307298247326816311976130342467981 (0x9E0322DC8633132EB89AE5CD70F6B98D)
Полное имя : Мы здесь больше не живем 2004.WEB-DL.720p.ПМ.Eng.mkv
Формат : Matroska
Версия формата : Version 4 / Version 2
Размер файла : 3,32 Гбайт
Продолжительность : 1 ч. 38 м.
Общий поток : 4805 Кбит/сек
Название фильма : We Don't Live Here Anymore (2004)
Дата кодирования : UTC 2013-10-14 12:14:54
Программа кодирования : mkvmerge v6.4.1 ('Omega Point') built on Sep 16 2013 22:05:10
Библиотека кодирования : libebml v1.3.0 + libmatroska v1.4.1
Видео
Идентификатор : 1
Формат : AVC
Формат/Информация : Advanced Video Codec
Профиль формата : Main@L3.1
Параметр CABAC формата : Нет
Параметр ReFrames формата : 2 кадра
Идентификатор кодека : V_MPEG4/ISO/AVC
Продолжительность : 1 ч. 38 м.
Битрейт : 3878 Кбит/сек
Ширина : 1280 пикселей
Высота : 528 пикселей
Соотношение сторон : 2,40:1
Режим частоты кадров : Постоянный
Частота кадров : 23,976 кадра/сек
Цветовое пространство : YUV
Субдискретизация насыщенности : 4:2:0
Битовая глубина : 8 бит
Тип развёртки : Прогрессивная
Бит/(Пиксели*Кадры) : 0.239
Размер потока : 2,68 Гбайт (81%)
Язык : English
Default : Да
Forced : Нет
Основные цвета : BT.709
Характеристики трансфера : BT.709
Коэффициенты матрицы : BT.709
Аудио #1
Идентификатор : 2
Формат : AC-3
Формат/Информация : Audio Coding 3
Расширение режима : CM (complete main)
Параметр Endianness формата : Big
Идентификатор кодека : A_AC3
Продолжительность : 1 ч. 38 м.
Вид битрейта : Постоянный
Битрейт : 448 Кбит/сек
Каналы : 6 каналов
Расположение каналов : Front: L C R, Side: L R, LFE
Частота : 48,0 КГц
Битовая глубина : 16 бит
Метод сжатия : С потерями
Размер потока : 317 Мбайт (9%)
Заголовок : AC3 6ch 448kbps - многоголосый (DVD R5 - «CP-Digital»)
Язык : Russian
Default : Да
Forced : Нет
Аудио #2
Идентификатор : 3
Формат : AC-3
Формат/Информация : Audio Coding 3
Расширение режима : CM (complete main)
Параметр Endianness формата : Big
Идентификатор кодека : A_AC3
Продолжительность : 1 ч. 38 м.
Вид битрейта : Постоянный
Битрейт : 384 Кбит/сек
Каналы : 6 каналов
Расположение каналов : Front: L C R, Side: L R, LFE
Частота : 48,0 КГц
Битовая глубина : 16 бит
Метод сжатия : С потерями
Размер потока : 272 Мбайт (8%)
Язык : English
Default : Нет
Forced : Нет
Текст
Идентификатор : 4
Формат : UTF-8
Идентификатор кодека : S_TEXT/UTF8
Идентификатор кодека/Информация : UTF-8 Plain Text
Язык : English
Default : Нет
Forced : Нет
Меню
00:00:00.000 : en:Two Couples.
00:04:41.000 : en:Momentary Truth.
00:08:29.000 : en:Saturday Morning.
00:14:40.000 : en:How We'll Get Caught.
00:20:21.000 : en:Space.
00:22:53.000 : en:Thoughts In The Woods.
00:26:30.000 : en:Hank's Principles.
00:30:17.000 : en:Disturbing Conversation.
00:36:17.000 : en:Look At Me.
00:38:09.000 : en:What's On The Page.
00:42:39.000 : en:Watching The Trapped.
00:47:11.000 : en:I Know The Routine.
00:52:07.000 : en:Turning Points.
00:55:33.000 : en:Awkward And Worse.
01:00:39.000 : en:Infidelity's Details.
01:06:56.000 : en:They Did It.
01:10:40.000 : en:Concentrate On Hate.
01:13:32.000 : en:Cleaning House.
01:18:34.000 : en:At The Edge.
01:22:28.000 : en:We Can Do This.
01:26:41.000 : en:Too Sad.
01:31:47.000 : en:It's Over.
01:34:50.000 : en:End Credits.

-
Скачать

Скачать торрент!

Как скачивать? · Что такое торрент? · Рейтинг и ограничения

Сайт не распространяет и не хранит электронные версии произведений, а лишь предоставляет доступ к создаваемому пользователями каталогу ссылок на торрент-файлы, которые содержат только списки хеш-сумм

[Профиль] [ЛС]
Показать сообщения:    
Ответить на тему

Текущее время: Сегодня 18:41

Часовой пояс: GMT + 4



Вы не можете начинать темы
Вы не можете отвечать на сообщения
Вы не можете редактировать свои сообщения
Вы не можете удалять свои сообщения
Вы не можете голосовать в опросах
Вы не можете прикреплять файлы к сообщениям
Вы не можете скачивать файлы