Кладбище домашних животных 2 / Pet Sematary II (Мэри Ламберт / Mary Lambert) [1992, США, ужасы, триллер, HDTV 1080i] MVO + AVO (Гаврилов) + original (eng) + sub (eng)

Ответить на тему
 
Автор Сообщение

user ®

Стаж: 7 лет 7 месяцев

Сообщений: 20008

Пост Пост: #1 от 13-Окт-2013 16:05

[Цитировать]

Кладбище домашних животных 2 / Pet Sematary II
Год выпуска: 1992
Страна: США
Жанр: ужасы, триллер
Продолжительность: 01:36:17
Перевод1: Профессиональный(многолосый, закадровый)
Перевод2: Авторский (одноголосый, закадровый)(А.Гаврилов)
Субтитры: английские
Оригинальная аудиодорожка: английский
Режиссер: Мэри Ламберт / Mary Lambert
В ролях: Эдвард Ферлонг, Энтони Эдвардс, Клэнси Браун, Джэред Раштон, Дарлэнн Флюгел, Джейсон МакГуайр, Сара Триггер, Лиза Вальц, Джим Пек, Лен Хант
Описание: После смерти жены ветеринар Чейз Мэтьюз и его тринадцатилетний сын Джефф решают начать новую жизнь. Отец и сын переезжают в захолустный городок Ладлоу. Здесь Джефф знакомится с подростком по имени Дрю.
Как выяснилось, новому приятелю Джеффа живется несладко. Над Дрю постоянно издевается его отчим — местный шериф Гас Гилберт.
Однажды, когда жестокость отчима перешла все границы, он хладнокровно пристрелил любимую собаку Дрю. Теперь мальчикам предстоит похоронить пса. И они решают сделать это на старом индейском кладбище, про которое ходят жуткие легенды. Рассказывают, что если закопать на нем мертвеца, то через некоторое время он обязательно вернется…


Качество: HDTV 1080i
Формат: MKV
Видео кодек: H.264
Аудио кодек: AC3
Видео: 1920 x 1080; 25 fps; 9 805 Kbps
Аудио1: Русский, AC3 5.1 448 Kbps 48,0 КГц
Аудио2: Русский, AC3 2.0 192 Kbps 48,0 КГц(Gavrilov)
Аудио3: English, AC3 5.1 384 Kbps 48,0 КГц(Original)
Субтитры: SoftSub (SRT)

MediaInfo

D:\HDFILMS\Pet.Sematary.II.1992.1080i.HDTV.2xRus.Eng.mkv
General
Unique ID : 208489169121255334787726511289081400466 (0x9CD98DAAE887C53DB78B68DA632E0C92)
Complete name : D:\HDFILMS\Pet.Sematary.II.1992.1080i.HDTV.2xRus.Eng.mkv
Format : Matroska
File size : 7.43 GiB
Duration : 1h 36mn
Overall bit rate : 11.0 Mbps
Movie name : Pet Sematary II
Encoded date : UTC 2013-10-10 16:40:01
Writing application : mkvmerge v6.2.0 ('Promised Land') built on Apr 28 2013 12:22:01
Writing library : libebml v1.3.0 + libmatroska v1.4.0
Video #1
ID : 1
Format : AVC
Format/Info : Advanced Video Codec
Format profile : Main@L4.0
Format settings, CABAC : Yes
Format settings, ReFrames : 4 frames
Codec ID : V_MPEG4/ISO/AVC
Duration : 1h 36mn
Bit rate : 9 805 Kbps
Width : 1 920 pixels
Height : 1 080 pixels
Display aspect ratio : 16:9
Frame rate : 50.000 fps
Original frame rate : 25.000 fps
Color space : YUV
Chroma subsampling : 4:2:0
Bit depth : 8 bits
Scan type : Interlaced
Scan order : Top Field First
Bits/(Pixel*Frame) : 0.095
Stream size : 6.60 GiB (89%)
Title : Pet Sematary II 1992 1080i HDTV DD5.1 H.264-CtrlHD
Color primaries : BT.709-5, BT.1361, IEC 61966-2-4, SMPTE RP177
Transfer characteristics : BT.709-5, BT.1361
Matrix coefficients : BT.709-5, BT.1361, IEC 61966-2-4 709, SMPTE RP177
Audio #2
ID : 2
Format : AC-3
Format/Info : Audio Coding 3
Mode extension : CM (complete main)
Codec ID : A_AC3
Duration : 1h 36mn
Bit rate mode : Constant
Bit rate : 448 Kbps
Channel(s) : 6 channels
Channel positions : Front: L C R, Side: L R, LFE
Sampling rate : 48.0 KHz
Bit depth : 16 bits
Compression mode : Lossy
Stream size : 309 MiB (4%)
Title : MVO AC3 5.1 448 kbps
Language : Russian
Audio #3
ID : 3
Format : AC-3
Format/Info : Audio Coding 3
Mode extension : CM (complete main)
Codec ID : A_AC3
Duration : 1h 36mn
Bit rate mode : Constant
Bit rate : 192 Kbps
Channel(s) : 2 channels
Channel positions : Front: L R
Sampling rate : 48.0 KHz
Bit depth : 16 bits
Compression mode : Lossy
Stream size : 132 MiB (2%)
Title : Gavrilov AC3 2.0 192 kbps
Language : Russian
Audio #4
ID : 4
Format : AC-3
Format/Info : Audio Coding 3
Mode extension : CM (complete main)
Codec ID : A_AC3
Duration : 1h 36mn
Bit rate mode : Constant
Bit rate : 384 Kbps
Channel(s) : 6 channels
Channel positions : Front: L C R, Side: L R, LFE
Sampling rate : 48.0 KHz
Bit depth : 16 bits
Compression mode : Lossy
Stream size : 265 MiB (3%)
Title : Original AC3 5.1 384 kbps
Language : English
Text #5
ID : 5
Format : UTF-8
Codec ID : S_TEXT/UTF8
Codec ID/Info : UTF-8 Plain Text
Language : English

Скриншоты

Скачать

Скачать торрент!

Как скачивать? · Что такое торрент? · Рейтинг и ограничения

Сайт не распространяет и не хранит электронные версии произведений, а лишь предоставляет доступ к создаваемому пользователями каталогу ссылок на торрент-файлы, которые содержат только списки хеш-сумм

[Профиль] [ЛС]
Показать сообщения:    
Ответить на тему

Текущее время: Сегодня 10:48

Часовой пояс: GMT + 4



Вы не можете начинать темы
Вы не можете отвечать на сообщения
Вы не можете редактировать свои сообщения
Вы не можете удалять свои сообщения
Вы не можете голосовать в опросах
Вы не можете прикреплять файлы к сообщениям
Вы не можете скачивать файлы