Месть / Daruvu (Сива / Siva) [2012, Индия, Боевик, комедия, HDRip] Sub Rus

Ответить на тему
 
Автор Сообщение

user ®

Стаж: 12 лет

Сообщений: 15125

Пост Пост: #1 от 13-Окт-2013 12:55

[Цитировать]

Месть / Daruvu
Страна: Индия
Жанр: Боевик
Год выпуска: 2012
Продолжительность: 02:41:39
Язык: Телугу
Перевод: Субтитры
Cубтитры: русские
Режиссер: Cива / Siva
Композитор: Виджай Энтони / Vijay Antony
В ролях: Рави Теджа, Тапси Панну, Сушант Сингх, Саяджи Шинде, Брахманандам, Сана, Прабху, М.С. Нараяна, Рагху Бабу
Описание: Буллет Раджа (Рави Теджа) - мелкий хулиган с добрым сердцем. Он встречает Швету (Таапси Панну) на одном празднике и влюбляется в нее с первого взгляда. Но есть проблема - это ее помолвка с Бабу (Сушант Сингх), местным бандитом. Бабу намерен убрать противника с дороги и он преуспевает в этом, однако, у богов свои планы на Раджу.
(с) tonyvika
b]Мировая премьера: 25 мая 2012 г.
Трейлер фильма
Страница фильма в Википедии
Страница фильма на The Internet Movie Database (IMDb)
Страница фильма на Кинопоиске
Релиз-группа
Перевод: tonyvika
Редакция субтитров: igordoc
Прошу не выкладывать данный релиз на других сайтах и не использовать субтитры без разрешения переводчика!

Скачать сэмпл: Месть
Качество видео: HDRip (Исходник: Daruvu (2012) - Blu-Ray - x264 - 720p - AC3 - [DDR])
Формат видео: AVI
Видео: XviD, 720x304 (2.35:1), 24.000 fps, ~836 kbps avg, 0.159 bit/pixel
Аудио: AC3, 48 kHz, ~448.00 kbps avg, 6 ch
Формат субтитров: hardsub (неотключаемые)

Фрагмент субтитров

26
00:03:46,450 --> 00:03:49,699
Сын, я расскажу тебе секрет Бога
перед тем, как покину это место.
27
00:03:49,992 --> 00:03:51,283
Что же это, отец?
28
00:03:52,700 --> 00:03:58,366
Принимай спокойно людей в ад,
говорящих на всех языках,
29
00:03:58,617 --> 00:04:00,283
у тебя не будет с ними проблем,
30
00:04:00,575 --> 00:04:04,866
но будь предельно осторожен с
теми, что говорят на одном языке.
31
00:04:05,117 --> 00:04:06,908
Английском?
- Нет!
32
00:04:07,159 --> 00:04:09,616
Хинди?
- Нет!- На каком?
33
00:04:12,784 --> 00:04:13,791
Телугу!

MediaInfo

Общее
Полное имя : E:\Download\My relizy\bwtorrents\Mest.2013.BDRip.XviD.bollywoodtime.avi
Формат : AVI
Формат/Информация : Audio Video Interleave
Размер файла : 1,46 Гбайт
Продолжительность : 2 ч. 41 м.
Общий поток : 1293 Кбит/сек
Программа кодирования : VirtualDubMod 1.5.10.3 | www.virtualdub-fr.org || (build 2550/release)
Библиотека кодирования : VirtualDubMod build 2550/release
Видео
Идентификатор : 0
Формат : MPEG-4 Visual
Профиль формата : Advanced Simple@L5
Параметр BVOP формата : 2
Параметр QPel формата : Нет
Параметр GMC формата : Без точки перехода
Параметр матрицы формата : Default (H.263)
Идентификатор кодека : XVID
Идентификатор кодека/Подсказка : XviD
Продолжительность : 2 ч. 41 м.
Битрейт : 836 Кбит/сек
Ширина : 720 пикселей
Высота : 304 пикселя
Соотношение сторон : 2,35:1
Частота кадров : 24,000 кадра/сек
Цветовое пространство : YUV
Субдискретизация насыщенности : 4:2:0
Битовая глубина : 8 бит
Тип развёртки : Прогрессивная
Метод сжатия : С потерями
Бит/(Пиксели*Кадры) : 0.159
Размер потока : 966 Мбайт (65%)
Библиотека кодирования : XviD 1.2.1 (UTC 2008-12-04)
Аудио
Идентификатор : 1
Формат : AC-3
Формат/Информация : Audio Coding 3
Расширение режима : CM (complete main)
Параметр Endianness формата : Big
Идентификатор кодека : 2000
Продолжительность : 2 ч. 41 м.
Вид битрейта : Постоянный
Битрейт : 448 Кбит/сек
Каналы : 6 каналов
Расположение каналов : Front: L C R, Side: L R, LFE
Частота : 48,0 КГц
Битовая глубина : 16 бит
Метод сжатия : С потерями
Размер потока : 518 Мбайт (35%)
Выравнивание : Разделение по промежуткам
Продолжительность промежутка : 42 мс. (1,00 видеокадр)
Время предзагрузки промежутка : 500 мс.

Скриншот c названием фильма

Скриншоты

Скачать

Скачать торрент! Месть / Daruvu (Сива / Siva) [2012, Индия, Боевик, комедия, HDRip] Sub Rus

Как скачивать? · Что такое торрент? · Рейтинг и ограничения

Сайт не распространяет и не хранит электронные версии произведений, а лишь предоставляет доступ к создаваемому пользователями каталогу ссылок на торрент-файлы, которые содержат только списки хеш-сумм

[Профиль] [ЛС]
Показать сообщения:    
Ответить на тему

Текущее время: Сегодня 01:01

Часовой пояс: GMT + 4



Вы не можете начинать темы
Вы не можете отвечать на сообщения
Вы не можете редактировать свои сообщения
Вы не можете удалять свои сообщения
Вы не можете голосовать в опросах
Вы не можете прикреплять файлы к сообщениям
Вы не можете скачивать файлы