Повелители Салема / The Lords Of Salem (Роб Зомби / Rob Zombie) [2012, США, Великобритания, Канада, ужасы, триллер, BDRemux 1080p] [US Transfer] MVO (R5) + VO (den904) + Original (Eng) + Subs (Rus, Eng, Ukr)

Ответить на тему
 
Автор Сообщение

user ®

Стаж: 7 лет 7 месяцев

Сообщений: 20008

Пост Пост: #1 от 12-Окт-2013 00:15

[Цитировать]

Повелители Салема / The Lords Of Salem Страна: США, Великобритания, Канада
Студия: Alliance Films, Automatik Entertainment, ...
Жанр: ужасы, триллер
Год выпуска: 2012
Продолжительность: 01:40:56
Перевод:
  • Профессиональный (многоголосый закадровый) R5
  • Одноголосый закадровый den904
Cубтитры: английские, русские (Aidolov777), украинские
Оригинальная аудиодорожка: английский
Режиссер: Роб Зомби / Rob Zombie
В ролях: Шери Мун Зомби, Брюс Дэвисон, Джеффри Дэниэл Филлипс, Кен Фори, Патриция Куинн, Ди Уоллес-Стоун, Мария Кончита Алонсо, Джуди Гисон, Мег Фостер, Ричард Фэнси
Описание:
Блондинка Хейди — крутая диск-жокейка провинциальной радиостанции, вместе с двумя друзьями они составляют команду Big H Radio. Хейди получает странную посылку — деревянную коробку с виниловой пластинкой, «подарок от Властелинов». Она решает, что это неизвестная ей прежде рок-группа таким образом обращает на себя внимание. Но когда пластинка начинает играть, Хейди испытывает шок, связанный с подавленными воспоминаниями. Однако никто больше ничего подобного не переживает и песня, названная «Властелины Салема», становится хитом. Позднее приходит еще одна посылка от Властелинов, содержащая плакаты, аудио и три бесплатных пригласительных билета на некую вечеринку в Салеме. Хейди и ее друзьям предстоит узнать, что это будет вовсе не рок-концерт: самые настоящие властелины ведьмовского города Салем вернулись и жаждут крови.
- || -Тип релиза: BDRemux 1080p (The.Lords.of.Salem.2012.1080p.USA.BD25.AVC.TrueHD.5.1-BabyGirl21)
Контейнер: MKV
Видео: AVC (x264), 1920x1080 (16:9) at 23,976 fps, ~24861 Кbps
Аудио 1: AC3; 448 Kbps; CBR; 6 ch; 48 khz | P, MVO - R5 |
Аудио 2: DTS HDMA; ~3591 Kbps; VBR; 6 ch; 48 khz; 24 bit [DTS Core: 5.1 / 48 kHz / 1509 kbps / 24-bit] | VO - den904 |
Аудио 3: DTS HDMA; ~3549 Kbps; VBR; 6 ch; 48 khz; 24 bit [DTS Core: 5.1 / 48 kHz / 1509 kbps / 24-bit] | Английский |
Аудио 4: AC3; 192 Kbps; CBR; 2 ch; 48 khz | Английский | - Commentary: Роб Зомби
Формат субтитров: softsub (SRT)

Скриншоты || x264 Info || MediaInfo || Notes

Notes:

  • Аудио дорожка №1 взята с этой [url=http://***/forum/viewtopic.php?t=4508497]раздачи[/url], thx: Kraftubertragung
  • Поименованные главы взяты с The.Lords.of.Salem.2012.COMPLETE.NTSC.DVDR-BabyGirl21

MediaInfo

Общее
Уникальный идентификатор                 : 235261588023883817487535753036280591205 (0xB0FDBBD4AD12417AA4B62CD35DB37365)
Полное имя                               : Повелители Салема.2012.P.1080p.BluRay.Remux.x264.mkv
Формат                                   : Matroska
Версия формата                           : Version 4 / Version 2
Размер файла                             : 23,0 Гбайт
Продолжительность                        : 1 ч. 40 м.
Режим общего битрейта                    : Переменный
Общий поток                              : 32,6 Мбит/сек
Название фильма                          : profile.php?mode=viewprofile&u=22488948
Дата кодирования                         : UTC 2013-10-09 21:31:23
Программа кодирования                    : mkvmerge v6.4.1 ('Omega Point') built on Sep 16 2013 22:05:10
Библиотека кодирования                   : libebml v1.3.0 + libmatroska v1.4.1
Видео
Идентификатор                            : 1
Формат                                   : AVC
Формат/Информация                        : Advanced Video Codec
Профиль формата                          : High@L4.1
Параметр CABAC формата                   : Да
Параметр ReFrames формата                : 2 кадра
Идентификатор кодека                     : V_MPEG4/ISO/AVC
Продолжительность                        : 1 ч. 40 м.
Вид битрейта                             : Переменный
Ширина                                   : 1920 пикселей
Высота                                   : 1080 пикселей
Соотношение сторон                       : 16:9
Режим частоты кадров                     : Постоянный
Частота кадров                           : 23,976 кадра/сек
Цветовое пространство                    : YUV
Субдискретизация насыщенности            : 4:2:0
Битовая глубина                          : 8 бит
Тип развёртки                            : Прогрессивная
Заголовок                                : ~24861 kbps / 1080p / 23,976 fps / 16:9 / High Profile 4.1
Язык                                     : English
Default                                  : Да
Forced                                   : Нет
Аудио #1
Идентификатор                            : 2
Формат                                   : AC-3
Формат/Информация                        : Audio Coding 3
Расширение режима                        : CM (complete main)
Параметр Endianness формата              : Big
Идентификатор кодека                     : A_AC3
Продолжительность                        : 1 ч. 40 м.
Вид битрейта                             : Постоянный
Битрейт                                  : 448 Кбит/сек
Каналы                                   : 6 каналов
Расположение каналов                     : Front: L C R, Side: L R, LFE
Частота                                  : 48,0 КГц
Битовая глубина                          : 16 бит
Метод сжатия                             : С потерями
Размер потока                            : 323 Мбайт (1%)
Заголовок                                : P, MVO [R5]
Язык                                     : Russian
Default                                  : Да
Forced                                   : Нет
Аудио #2
Идентификатор                            : 3
Формат                                   : DTS
Формат/Информация                        : Digital Theater Systems
Профиль формата                          : MA / Core
Режим                                    : 16
Параметр Endianness формата              : Big
Идентификатор кодека                     : A_DTS
Продолжительность                        : 1 ч. 40 м.
Вид битрейта                             : Переменный
Битрейт                                  : Неизвестно / 1509 Кбит/сек
Каналы                                   : 6 каналов
Расположение каналов                     : Front: L C R, Side: L R, LFE
Частота                                  : 48,0 КГц
Битовая глубина                          : 24 бит
Метод сжатия                             : Без потерь / Lossy
Заголовок                                : VO [den904] // 5.1 / 48 kHz / 3591 kbps / 24-bit (DTS Core: 5.1 / 48 kHz / 1509 kbps / 24-bit)
Язык                                     : Russian
Default                                  : Нет
Forced                                   : Нет
Аудио #3
Идентификатор                            : 4
Формат                                   : DTS
Формат/Информация                        : Digital Theater Systems
Профиль формата                          : MA / Core
Режим                                    : 16
Параметр Endianness формата              : Big
Идентификатор кодека                     : A_DTS
Продолжительность                        : 1 ч. 40 м.
Вид битрейта                             : Переменный
Битрейт                                  : Неизвестно / 1509 Кбит/сек
Каналы                                   : 6 каналов
Расположение каналов                     : Front: L C R, Side: L R, LFE
Частота                                  : 48,0 КГц
Битовая глубина                          : 24 бит
Метод сжатия                             : Без потерь / Lossy
Заголовок                                : 5.1 / 48 kHz / 3549 kbps / 24-bit (DTS Core: 5.1 / 48 kHz / 1509 kbps / 24-bit)
Язык                                     : English
Default                                  : Нет
Forced                                   : Нет
Аудио #4
Идентификатор                            : 5
Формат                                   : AC-3
Формат/Информация                        : Audio Coding 3
Расширение режима                        : CM (complete main)
Параметр Endianness формата              : Big
Идентификатор кодека                     : A_AC3
Продолжительность                        : 1 ч. 40 м.
Вид битрейта                             : Постоянный
Битрейт                                  : 192 Кбит/сек
Каналы                                   : 2 канала
Расположение каналов                     : Front: L R
Частота                                  : 48,0 КГц
Битовая глубина                          : 16 бит
Метод сжатия                             : С потерями
Размер потока                            : 139 Мбайт (1%)
Заголовок                                : commentary: by Rob Zombie
Язык                                     : English
Default                                  : Нет
Forced                                   : Нет
Текст #1
Идентификатор                            : 6
Формат                                   : UTF-8
Идентификатор кодека                     : S_TEXT/UTF8
Идентификатор кодека/Информация          : UTF-8 Plain Text
Заголовок                                : SDH
Язык                                     : English
Default                                  : Нет
Forced                                   : Нет
Текст #2
Идентификатор                            : 7
Формат                                   : UTF-8
Идентификатор кодека                     : S_TEXT/UTF8
Идентификатор кодека/Информация          : UTF-8 Plain Text
Заголовок                                : [Aidolov777]
Язык                                     : Russian
Default                                  : Нет
Forced                                   : Нет
Текст #3
Идентификатор                            : 8
Формат                                   : UTF-8
Идентификатор кодека                     : S_TEXT/UTF8
Идентификатор кодека/Информация          : UTF-8 Plain Text
Язык                                     : Ukrainian
Default                                  : Нет
Forced                                   : Нет
Меню
00:00:00.000                             : en:Main Titles
00:04:47.578                             : en:Salem Rocks
00:13:25.888                             : en:The Lords
00:20:10.209                             : en:Francis Matthais
00:29:28.057                             : en:Room 5
00:40:27.299                             : en:Sinning Angels
00:45:36.275                             : en:A Witch's Fate
00:53:17.068                             : en:Kinda Freaky
01:01:02.200                             : en:Facing the Dragon
01:10:05.326                             : en:"Bye"
01:23:20.453                             : en:Birthplace
01:34:12.688                             : en:End Credits

Source vs Encode

NORDIC BluRay....................US BluRay

Скачать

Скачать торрент!

Как скачивать? · Что такое торрент? · Рейтинг и ограничения

Сайт не распространяет и не хранит электронные версии произведений, а лишь предоставляет доступ к создаваемому пользователями каталогу ссылок на торрент-файлы, которые содержат только списки хеш-сумм

[Профиль] [ЛС]
Показать сообщения:    
Ответить на тему

Текущее время: Сегодня 08:29

Часовой пояс: GMT + 4



Вы не можете начинать темы
Вы не можете отвечать на сообщения
Вы не можете редактировать свои сообщения
Вы не можете удалять свои сообщения
Вы не можете голосовать в опросах
Вы не можете прикреплять файлы к сообщениям
Вы не можете скачивать файлы