Что-то не так с Кевином / We Need to Talk About Kevin (Линн Рэмзи / Lynne Ramsay) [2011, Великобритания, США, триллер, драма, HDTV 1080i] MVO

Ответить на тему
 
Автор Сообщение

user ®

Стаж: 7 лет 7 месяцев

Сообщений: 20008

Пост Пост: #1 от 09-Окт-2013 23:55

[Цитировать]

Что-то не так с Кевином / We Need to Talk About Kevin Страна: Великобритания, США
Жанр: триллер, драма
Год выпуска: 2011
Продолжительность: 01:47:26
Перевод: Профессиональный (многоголосый закадровый)
Cубтитры: нет
Режиссер: Линн Рэмзи / Lynne Ramsay
В ролях: Тильда Суинтон, Эзра Миллер, Джон Си Райли, Джаспер Ньюэлл, Рок Дер, Эшли Герасимович, Шиван Фэллон, Алекс Манетт, Кеннет Франклин, Лесли Лайлс
Описание:
Отложив в сторону все личные и профессиональные амбиции, Ева посвящает жизнь рождению и воспитанию сына. Однако их отношения с самого начала оказываются крайне сложными. В пятнадцать лет Кевин совершает непоправимое, и Ева мучается сознанием ответственности и собственной вины. Достаточно ли она любила своего сына? Какова доля ее вины в происшедшем?..
Доп. информация: запись со спутника (телеканал Кинопоказ HD-1)

Сэмпл: http://sendfile.su/878523
Качество видео: HDTV 1080i
Формат видео: TS
Видео: AVC/H.264, 1920x1080 (16:9), 7951 Кбит/сек, 25.000 fps, 0.153 bit/pixe
Аудио: Русский, Mp-2, 2 ch, 48,0 КГц, 192 Кбит/сек

MediaInfo

Видео
Идентификатор : 4096 (0x1000)
Идентификатор меню : 1 (0x1)
Формат : AVC
Формат/Информация : Advanced Video Codec
Профиль формата : High@L4.1
Параметр CABAC формата : Да
Параметр ReFrames формата : 3 кадра
Параметр GOP формата : M=3, N=33
Идентификатор кодека : 27
Продолжительность : 1 ч. 47 м.
Вид битрейта : Постоянный
Битрейт : 7951 Кбит/сек
Ширина : 1920 пикселей
Высота : 1080 пикселей
Соотношение сторон : 16:9
Частота кадров : 25,000 кадров/сек
Стандарт вещания : PAL
Цветовое пространство : YUV
Субдискретизация насыщенности : 4:2:0
Битовая глубина : 8 бит
Тип развёртки : Прогрессивная
Бит/(Пиксели*Кадры) : 0.153
Размер потока : 5,87 Гбайт (93%)
Основные цвета : BT.709
Характеристики трансфера : BT.709
Коэффициенты матрицы : BT.709
Аудио
Идентификатор : 4097 (0x1001)
Идентификатор меню : 1 (0x1)
Формат : MPEG Audio
Версия формата : Version 1
Профиль формата : Layer 2
Идентификатор кодека : 3
Продолжительность : 1 ч. 47 м.
Вид битрейта : Постоянный
Битрейт : 192 Кбит/сек
Каналы : 2 канала
Частота : 48,0 КГц
Метод сжатия : С потерями
Задержка видео : 8 мс.
Размер потока : 148 Мбайт (2%)

Скриншот c названием фильма

Скриншоты

Время раздачи: с19:00 до 24:00 (МСК)
Скачать

Скачать торрент!

Как скачивать? · Что такое торрент? · Рейтинг и ограничения

Сайт не распространяет и не хранит электронные версии произведений, а лишь предоставляет доступ к создаваемому пользователями каталогу ссылок на торрент-файлы, которые содержат только списки хеш-сумм

[Профиль] [ЛС]
Показать сообщения:    
Ответить на тему

Текущее время: Сегодня 15:36

Часовой пояс: GMT + 4



Вы не можете начинать темы
Вы не можете отвечать на сообщения
Вы не можете редактировать свои сообщения
Вы не можете удалять свои сообщения
Вы не можете голосовать в опросах
Вы не можете прикреплять файлы к сообщениям
Вы не можете скачивать файлы