Среди друзей / Among Friends (Даниэль Харрис / Danielle Harris) [2012, США, ужасы, комедия, Web-DL 1080p] DVO (den904, DeadSno) + Original (Eng) + Sub (Eng)

Ответить на тему
 
Автор Сообщение

user ®

Стаж: 7 лет 7 месяцев

Сообщений: 20008

Пост Пост: #1 от 09-Окт-2013 23:55

[Цитировать]

Среди друзей / Among Friends Страна: США
Студия: Three Little Birds Productions, Hollywood Treasures
Жанр: ужасы, комедия
Год выпуска: 2012
Продолжительность: 01:20:13
Перевод: Любительский (двухголосый закадровый) den904, DeadSno // Перевод: chup
Cубтитры: английские (SDH)
Оригинальная аудиодорожка: английский
Режиссер: Даниэль Харрис / Danielle Harris
В ролях: Алисса Лобит, Дженнифер Бланк, Эй Джей Боуэн, Кристофер Бакус, Дэна Даури, Брианна Дэвис, Камала Джонс, Крис Мейер, Jenise Blanc, Адам Коул
Описание:
В компании на вечеринке один из друзей захватил в заложники всю свою компанию, чтобы открыть всем тайны которые они скрывают друг от друга.
- || || || -Тип релиза: Web-DL 1080p

Контейнер: MKV
Видео: AVC (x264), 1912x1072 (16:9) at 23,976 fps, 4819 Кbps, 0.098 bpp
Аудио 1: AC3; 448 Kbps; CBR; 6 ch; 48 khz | DVO - den904, DeadSno |
Аудио 2: AC3; 448 Kbps; CBR; 6 ch; 48 khz | Английский |
Аудио 3: AC3; 192 Kbps; CBR; 2 ch; 48 khz | Английский | - Commentary: Даниэль Харрис и актёры Дженнифер Бланк & Эй Джей Боуэн
Формат субтитров: softsub (SRT)

Скриншоты || x264 Info || MediaInfo || Notes

Notes:

MediaInfo

Общее
Уникальный идентификатор                 : 194421082012742548083910565435095206403 (0x9244236C028ACFC88E1FA47631854A03)
Полное имя                               : В кругу друзей.2012.DVO.1080p.WEB-DL.x264-PHD.mkv
Формат                                   : Matroska
Версия формата                           : Version 4 / Version 2
Размер файла                             : 3,38 Гбайт
Продолжительность                        : 1 ч. 20 м.
Общий поток                              : 6027 Кбит/сек
Название фильма                          : profile.php?mode=viewprofile&u=22488948
Дата кодирования                         : UTC 2013-10-09 01:57:12
Программа кодирования                    : mkvmerge v6.4.1 ('Omega Point') built on Sep 16 2013 22:05:10
Библиотека кодирования                   : libebml v1.3.0 + libmatroska v1.4.1
Видео
Идентификатор                            : 1
Формат                                   : AVC
Формат/Информация                        : Advanced Video Codec
Профиль формата                          : High@L4.0
Параметр CABAC формата                   : Да
Параметр ReFrames формата                : 4 кадра
Идентификатор кодека                     : V_MPEG4/ISO/AVC
Продолжительность                        : 1 ч. 20 м.
Битрейт                                  : 4819 Кбит/сек
Ширина                                   : 1912 пикселей
Высота                                   : 1072 пикселя
Соотношение сторон                       : 16:9
Режим частоты кадров                     : Постоянный
Частота кадров                           : 23,976 кадра/сек
Цветовое пространство                    : YUV
Субдискретизация насыщенности            : 4:2:0
Битовая глубина                          : 8 бит
Тип развёртки                            : Прогрессивная
Бит/(Пиксели*Кадры)                      : 0.098
Размер потока                            : 2,70 Гбайт (80%)
Язык                                     : English
Default                                  : Да
Forced                                   : Нет
Основные цвета                           : BT.709
Характеристики трансфера                 : BT.709
Коэффициенты матрицы                     : BT.709
Аудио #1
Идентификатор                            : 2
Формат                                   : AC-3
Формат/Информация                        : Audio Coding 3
Расширение режима                        : CM (complete main)
Параметр Endianness формата              : Big
Идентификатор кодека                     : A_AC3
Продолжительность                        : 1 ч. 20 м.
Вид битрейта                             : Постоянный
Битрейт                                  : 448 Кбит/сек
Каналы                                   : 6 каналов
Расположение каналов                     : Front: L C R, Side: L R, LFE
Частота                                  : 48,0 КГц
Битовая глубина                          : 16 бит
Метод сжатия                             : С потерями
Размер потока                            : 257 Мбайт (7%)
Заголовок                                : DVO [den904, DeadSno]
Язык                                     : Russian
Default                                  : Да
Forced                                   : Нет
Аудио #2
Идентификатор                            : 3
Формат                                   : AC-3
Формат/Информация                        : Audio Coding 3
Расширение режима                        : CM (complete main)
Параметр Endianness формата              : Big
Идентификатор кодека                     : A_AC3
Продолжительность                        : 1 ч. 20 м.
Вид битрейта                             : Постоянный
Битрейт                                  : 448 Кбит/сек
Каналы                                   : 6 каналов
Расположение каналов                     : Front: L C R, Side: L R, LFE
Частота                                  : 48,0 КГц
Битовая глубина                          : 16 бит
Метод сжатия                             : С потерями
Размер потока                            : 257 Мбайт (7%)
Язык                                     : English
Default                                  : Нет
Forced                                   : Нет
Аудио #3
Идентификатор                            : 4
Формат                                   : AC-3
Формат/Информация                        : Audio Coding 3
Расширение режима                        : CM (complete main)
Параметр Endianness формата              : Big
Идентификатор кодека                     : A_AC3
Продолжительность                        : 1 ч. 20 м.
Вид битрейта                             : Постоянный
Битрейт                                  : 192 Кбит/сек
Каналы                                   : 2 канала
Расположение каналов                     : Front: L R
Частота                                  : 48,0 КГц
Битовая глубина                          : 16 бит
Метод сжатия                             : С потерями
Размер потока                            : 110 Мбайт (3%)
Заголовок                                : commentary: by Danielle Harris, Jennifer Blanc and AJ Bowen
Язык                                     : English
Default                                  : Нет
Forced                                   : Нет
Текст
Идентификатор                            : 5
Формат                                   : UTF-8
Идентификатор кодека                     : S_TEXT/UTF8
Идентификатор кодека/Информация          : UTF-8 Plain Text
Заголовок                                : SDH
Язык                                     : English
Default                                  : Нет
Forced                                   : Нет
Меню
00:00:00.000                             : en:Chapter 1
00:04:50.000                             : en:Chapter 2
00:15:00.000                             : en:Chapter 3
00:23:40.000                             : en:Chapter 4
00:30:40.000                             : en:Chapter 5
00:40:03.000                             : en:Chapter 6
00:49:15.000                             : en:Chapter 7
00:58:44.000                             : en:Chapter 8
01:05:17.000                             : en:Chapter 9
01:13:17.000                             : en:Chapter 10
Скачать

Скачать торрент!

Как скачивать? · Что такое торрент? · Рейтинг и ограничения

Сайт не распространяет и не хранит электронные версии произведений, а лишь предоставляет доступ к создаваемому пользователями каталогу ссылок на торрент-файлы, которые содержат только списки хеш-сумм

[Профиль] [ЛС]
Показать сообщения:    
Ответить на тему

Текущее время: Сегодня 17:50

Часовой пояс: GMT + 4



Вы не можете начинать темы
Вы не можете отвечать на сообщения
Вы не можете редактировать свои сообщения
Вы не можете удалять свои сообщения
Вы не можете голосовать в опросах
Вы не можете прикреплять файлы к сообщениям
Вы не можете скачивать файлы