Орудия смерти: Город костей / The Mortal Instruments: City of Bones (Харольд Цварт / Harald Zwart) [2013, Канада, Германия, фэнтези, боевик, драма, приключения] Dub+ Original Eng

Ответить на тему
 
Автор Сообщение

user ®

Стаж: 7 лет 7 месяцев

Сообщений: 20008

Пост Пост: #1 от 09-Окт-2013 23:55

[Цитировать]

Орудия смерти: Город костей / The Mortal Instruments: City of Bones«Миры столкнутся»- -Страна: Канада, Германия / Constantin Film Produktion GmbH, Sony Pictures Entertainment (SPE), Unique Featu
Жанр: фэнтези, боевик, драма, мелодрама, детектив, приключения
Год выпуска: 2013
Продолжительность: 02:09:56-Перевод: Профессиональный (дублированный)[Звук с CAMRip]
Cубтитры: нет
Оригинальная аудиодорожка: английский-Режиссер: Харольд Цварт / Harald Zwart-В ролях: Джейми Кэмпбелл Бауэр, Лили Коллинз, Лина Хиди, Эйдан Тернер, Джонатан Рис-Майерс, Роберт Шиэн, Джемайма Уэст, Кевин Зегерс, Джаред Харрис, Кевин Дюран, Си Си Эйч Паундер, Гарри Ван Горкум, Стивен Р. Харт, Годфри Гао, Чад Коннелл-Описание: Клэри Фрэй всегда считала себя самой обыкновенной девушкой, пока не выяснилось, что она — потомок древнего рода Сумеречных Охотников, тайной касты воинов-полуангелов, защищающих наш мир от демонов. Когда мама Клэри исчезает, девушка объединяется с Сумеречными охотниками, чтобы спасти ее. Так начинается ее опасное знакомство с иной реальностью, в которой существуют демоны, маги, вампиры, оборотни и другие смертоносные существа.-Доп. информация: -Сэмпл: http://multi-up.com/911385-Качество видео: DVDRip
Формат видео: AVI
Видео: 720x304 (2.37:1), 23.976 fps, XviD build 46 ~1064 kbps avg, 0.20 bit/pixel
Аудио: 48 kHz, MPEG Layer 3, 2 ch, ~128.00 kbps avg [Dub]
Аудио 2: 48 kHz, AC3 Dolby Digital, 3/2 (L,C,R,l,r) LFE ch, ~320 kbps Original (Eng)

MediaInfo

Полное имя : H:\Torrent2\Orudia.sperty.gorod.costej.2013.Dc.DVDRip.1400MB_[ СПАМ
Формат : AVI
Формат/Информация : Audio Video Interleave
Размер файла : 1,39 Гбайт
Продолжительность : 2 ч. 9 м.
Общий поток : 1527 Кбит/сек
Программа кодирования : VirtualDubMod 1.5.10.2 (build 2540/release)
Библиотека кодирования : VirtualDubMod build 2540/release
Видео
Идентификатор : 0
Формат : MPEG-4 Visual
Профиль формата : Simple@L3
Параметр BVOP формата : Нет
Параметр QPel формата : Нет
Параметр GMC формата : Без точки перехода
Параметр матрицы формата : Default (H.263)
Идентификатор кодека : XVID
Идентификатор кодека/Подсказка : XviD
Продолжительность : 2 ч. 9 м.
Битрейт : 1065 Кбит/сек
Ширина : 720 пикселей
Высота : 304 пикселя
Соотношение сторон : 2,35:1
Частота кадров : 23,976 кадра/сек
Цветовое пространство : YUV
Субдискретизация насыщенности : 4:2:0
Битовая глубина : 8 бит
Тип развёртки : Прогрессивная
Метод сжатия : С потерями
Бит/(Пиксели*Кадры) : 0.203
Размер потока : 990 Мбайт (70%)
Библиотека кодирования : XviD 1.1.2 (UTC 2006-11-01)
Аудио #1
Идентификатор : 1
Формат : MPEG Audio
Версия формата : Version 1
Профиль формата : Layer 3
Режим : Joint stereo
Расширение режима : MS Stereo
Идентификатор кодека : 55
Идентификатор кодека/Подсказка : MP3
Продолжительность : 2 ч. 9 м.
Вид битрейта : Постоянный
Битрейт : 128 Кбит/сек
Каналы : 2 канала
Частота : 48,0 КГц
Метод сжатия : С потерями
Размер потока : 119 Мбайт (8%)
Выравнивание : Соединение по промежуткам
Продолжительность промежутка : 42 мс. (1,00 видеокадр)
Время предзагрузки промежутка : 504 мс.
Аудио #2
Идентификатор : 2
Формат : AC-3
Формат/Информация : Audio Coding 3
Расширение режима : CM (complete main)
Параметр Endianness формата : Big
Идентификатор кодека : 2000
Продолжительность : 2 ч. 9 м.
Вид битрейта : Постоянный
Битрейт : 320 Кбит/сек
Каналы : 6 каналов
Расположение каналов : Front: L C R, Side: L R, LFE
Частота : 48,0 КГц
Битовая глубина : 16 бит
Метод сжатия : С потерями
Размер потока : 297 Мбайт (21%)
Выравнивание : Разделение по промежуткам
Продолжительность промежутка : 42 мс. (1,00 видеокадр)
Время предзагрузки промежутка : 500 мс.

Скриншот c названием фильма

Скриншоты

Скачать

Скачать торрент!

Как скачивать? · Что такое торрент? · Рейтинг и ограничения

Сайт не распространяет и не хранит электронные версии произведений, а лишь предоставляет доступ к создаваемому пользователями каталогу ссылок на торрент-файлы, которые содержат только списки хеш-сумм

[Профиль] [ЛС]
Показать сообщения:    
Ответить на тему

Текущее время: Сегодня 00:11

Часовой пояс: GMT + 4



Вы не можете начинать темы
Вы не можете отвечать на сообщения
Вы не можете редактировать свои сообщения
Вы не можете удалять свои сообщения
Вы не можете голосовать в опросах
Вы не можете прикреплять файлы к сообщениям
Вы не можете скачивать файлы