Трансформеры / The Transformers: The Movie (Нельсон Шин / Nelson Shin) [1986, фантастика, боевик, приключения, BDRip] MVO (SHIZA Project)

Ответить на тему
 
Автор Сообщение

user ®

Стаж: 13 лет

Сообщений: 15041

Пост Пост: #1 от 08-Окт-2013 22:40

[Цитировать]

Трансформеры / The Transformers: The Movie
Страна: США, Япония
Жанр: фантастика, боевик, приключения
Продолжительность: 01:25:01
Год выпуска: 1986
Перевод: Любительский (многоголосый закадровый) SHIZA Project
Русские субтитры: нет
Режиссёр: Нельсон Шин / Nelson Shin
Описание: … Автоботы и Десептиконы продолжают войну за контроль над территорией в 2005 году. Войска Мегатрона завоевали Кибертрон, но Автоботы готовы это изменить. В масштабном конфликте старые герои падут и новые восстанут, в то время как планета — демон Юникрон будет приближаться к их родному миру…
Сэмпл: http://multi-up.com/911150
Качество: BDRip
Формат: AVI
Видео: 720x400 (1.80:1), 23.976 fps, XviD build 65 ~1977 kbps avg, 0.29 bit/pixel
Аудио: 48 kHz, AC3 Dolby Digital, 3/2 (L,C,R,l,r) + LFE ch, ~448 kbps
Субтитры: отсутствуют

Подробные технические данные

GeneralComplete name : D:\The Transformers - The Movie.aviFormat : AVIFormat/Info : Audio Video InterleaveFile size : 1.45 GiBDuration : 1h 25mnOverall bit rate : 2 435 KbpsWriting application : VirtualDubMod 1.5.10.3 (build 2550/release)Writing library : VirtualDubMod build 2550/release
VideoID : 0Format : MPEG-4 VisualFormat profile : Advanced Simple@L5Format settings, BVOP : 1Format settings, QPel : NoFormat settings, GMC : No warppointsFormat settings, Matrix : CustomCodec ID : XVIDCodec ID/Hint : XviDDuration : 1h 25mnBit rate : 1 977 KbpsWidth : 720 pixelsHeight : 400 pixelsDisplay aspect ratio : 16:9Frame rate : 23.976 fpsColor space : YUVChroma subsampling : 4:2:0Bit depth : 8 bitsScan type : ProgressiveCompression mode : LossyBits/(Pixel*Frame) : 0.286Stream size : 1.17 GiB (81%)Writing library : XviD 65
AudioID : 1Format : AC-3Format/Info : Audio Coding 3Mode extension : CM (complete main)Format settings, Endianness : BigCodec ID : 2000Duration : 1h 25mnBit rate mode : ConstantBit rate : 448 KbpsChannel count : 6 channelsChannel positions : Front: L C R, Side: L R, LFESampling rate : 48.0 KHzBit depth : 16 bitsCompression mode : LossyStream size : 272 MiB (18%)Alignment : Split accross interleavesInterleave, duration : 42 ms (1.00 video frame)Interleave, preload duration : 500 ms

Скриншоты

Скачать

Скачать торрент! Трансформеры / The Transformers: The Movie (Нельсон Шин / Nelson Shin) [1986, фантастика, боевик, приключения, BDRip] MVO (SHIZA Project)

Как скачивать? · Что такое торрент? · Рейтинг и ограничения

Сайт не распространяет и не хранит электронные версии произведений, а лишь предоставляет доступ к создаваемому пользователями каталогу ссылок на торрент-файлы, которые содержат только списки хеш-сумм

[Профиль] [ЛС]
Показать сообщения:    
Ответить на тему

Текущее время: Сегодня 11:52

Часовой пояс: GMT + 4



Вы не можете начинать темы
Вы не можете отвечать на сообщения
Вы не можете редактировать свои сообщения
Вы не можете удалять свои сообщения
Вы не можете голосовать в опросах
Вы не можете прикреплять файлы к сообщениям
Вы не можете скачивать файлы