Кто стучится в дверь ко мне? / Who\'s That Knocking at My Door? / Jeo-soo-ji-e-seo Geon-jin Chi-ta sheejul (Ян Хэ Хун / Yang Hae-hoon) [2007, Южная Корея, Драма, DVDRip] VO

Ответить на тему
 
Автор Сообщение

user ®

Стаж: 11 лет

Сообщений: 15151

Пост Пост: #1 от 08-Окт-2013 14:50

[Цитировать]

Кто стучится в дверь ко мне? / Who's That Knocking at My Door? / Jeo-soo-ji-e-seo Geon-jin Chi-ta sheejul
Страна: Южная Корея
Жанр: Драма
Год выпуска: 2007
Продолжительность: 01:28:11
Перевод: Одноголосый закадровый den904
Cубтитры: нет
Режиссер: Ян Хэ Хун / Yang Hae-hoon
В ролях: Им Чи Гу, Юн Со Си, Чхо Сон Ха, Пё Сан У
Описание: Школьные издевательства и душевные раны, полученные за годы обучения, остаются со многими навсегда. Так случилось и с Чже-ви, который не смог вынести потрясений школьных дней и стал хикикомори. Страшась большого мира, он придумывает себе разные заклинания, чтобы психологически настроиться хотя бы на небольшую прогулку...Но лишь встреча с симпатичной соседкой придает ему сил не только выйти на улицу, но и противостоять своим прошлым страхам в лице главного обидчика. Однако ранимый юноша еще не знает, с какой человеческой подлостью он столкнется уже будучи взрослым...
Доп. информация: Исходник DVD-9 R1(СПАСИБО! wertrist)
Сэмпл: http://multi-up.com/910956
Качество видео: DVDRip
Формат видео: AVI
Видео: XviD build 50, 704x384 (1.83:1), 23.976 fps, 1043 kbps avg
Аудио: MPEG Layer 3, 48 kHz, 2/0 (L,R) ch, 128.00 kbps avg

MediaInfo

General
Complete name : D:\Kto.stuchitsya.v.dver.ko.mne.2007.XviD.DVDRip-Dego.avi
Format : AVI
Format/Info : Audio Video Interleave
File size : 745 MiB
Duration : 1h 28mn
Overall bit rate : 1 181 Kbps
Writing application : VirtualDubMod 1.5.10.2 (build 2540/release)
Writing library : VirtualDubMod build 2540/release
Video
ID : 0
Format : MPEG-4 Visual
Format profile : AdvancedSimple@L5
Format settings, BVOP : Yes
Format settings, QPel : No
Format settings, GMC : No warppoints
Format settings, Matrix : Default (MPEG)
Codec ID : XVID
Codec ID/Hint : XviD
Duration : 1h 28mn
Bit rate : 1 044 Kbps
Width : 704 pixels
Height : 384 pixels
Display aspect ratio : 16/9
Frame rate : 23.976 fps
Resolution : 24 bits
Colorimetry : 4:2:0
Scan type : Progressive
Bits/(Pixel*Frame) : 0.161
Stream size : 658 MiB (88%)
Writing library : XviD 1.2.1 (UTC 2008-12-04)
Audio
ID : 1
Format : MPEG Audio
Format version : Version 1
Format profile : Layer 3
Codec ID : 55
Codec ID/Hint : MP3
Duration : 1h 28mn
Bit rate mode : Constant
Bit rate : 128 Kbps
Channel(s) : 2 channels
Sampling rate : 48.0 KHz
Resolution : 16 bits
Stream size : 80.7 MiB (11%)
Alignment : Aligned on interleaves
Interleave, duration : 42 ms (1.00 video frame)
Interleave, preload duration : 504 ms

Скриншоты

Скачать

Скачать торрент! Кто стучится в дверь ко мне? / Who\'s That Knocking at My Door? / Jeo-soo-ji-e-seo Geon-jin Chi-ta sheejul (Ян Хэ Хун / Yang Hae-hoon) [2007, Южная Корея, Драма, DVDRip] VO

Как скачивать? · Что такое торрент? · Рейтинг и ограничения

Сайт не распространяет и не хранит электронные версии произведений, а лишь предоставляет доступ к создаваемому пользователями каталогу ссылок на торрент-файлы, которые содержат только списки хеш-сумм

[Профиль] [ЛС]
Показать сообщения:    
Ответить на тему

Текущее время: Сегодня 18:18

Часовой пояс: GMT + 4



Вы не можете начинать темы
Вы не можете отвечать на сообщения
Вы не можете редактировать свои сообщения
Вы не можете удалять свои сообщения
Вы не можете голосовать в опросах
Вы не можете прикреплять файлы к сообщениям
Вы не можете скачивать файлы