Легенда о любви / Sohni Mahiwal (Латиф Файзиев / Latif Faiziyev, Умеш Мехра / Umesh Mehra) [1984, Мелодрама, драма, приключения, DVDRip] Dub, вставки MVO (полная версия)

Ответить на тему
 
Автор Сообщение

user ®

Стаж: 12 лет

Сообщений: 15092

Пост Пост: #1 от 08-Окт-2013 08:30

[Цитировать]

Легенда о любви / Sohni Mahiwal
-Страна: Индия - CCCP
Жанр: Драма, мелодрама, приключения
Год выпуска: 1984
Продолжительность: 02:40:00-Перевод: Профессиональный (полное дублирование) [местами проф. многоголосый закадровый перевод]
Cубтитры: Нет-Режиссер: Латиф Файзиев / Latif Faiziyev, Умеш Мехра / Umesh Mehra-В ролях: Санни Деол, Пунам Диллон, Зинат Аман, Пран, Тануджа, Гюльшан Гроувер, Ракеш Беди, Бейби Фарида, Самад, Фрунзик Мкртчян-Описание: Предсказал старый мудрец бездетным индийскому горшечнику и купцу из Бухары, что родятся у них дети: девочка и мальчик, а когда вырастут, то полюбят друг друга. Прошли годы… Пышно и торжественно отмечает бухарский купец совершеннолетие сына. Среди множества подарков получил юноша дивной красоты кувшин, присланный из Индии. Заглянул он в кувшин и в зеркале воды увидел прекрасную девушку. В сердце юноши вспыхнула любовь, и отправился Иззат в далекую Индию на поиски любимой…-- --Качество видео: DVDRip
Исходник: DVD9 R1
Формат видео: AVI-Видео: XviD, 672х288, 23.976 fps, 1167 kbps
Аудио: MP3, 48 kHz, 2 ch, 128 Kbps--Синхронизация дубляжа: Алёна (спасибо!)
Риппер: soso4eg-- -
-

MI

Общее
Полное имя : C:\INDIYA\Legenda.O.Lyubvi.1984.DVDRip.XviD-soso4eg.avi
Формат : AVI
Формат/Информация : Audio Video Interleave
Размер файла : 1,46 Гбайт
Продолжительность : 2 ч. 40 м.
Общий поток : 1304 Кбит/сек
Название фильма : Sohni Mahiwal
Режиссёр : soso4eg
Программа кодирования : VirtualDubMod 1.5.10.3 | www.virtualdub-fr.org || (build 2550/release)
Правообладатель : ***
Видео
Идентификатор : 0
Формат : MPEG-4 Visual
Профиль формата : Advanced Simple@L5
Параметр BVOP формата : 2
Параметр QPel формата : Нет
Параметр GMC формата : Без точки перехода
Параметр матрицы формата : Default (MPEG)
Идентификатор кодека : XVID
Идентификатор кодека/Подсказка : XviD
Продолжительность : 2 ч. 40 м.
Битрейт : 1167 Кбит/сек
Ширина : 672 пикселя
Высота : 288 пикселей
Соотношение сторон : 2,35:1
Частота кадров : 23,976 кадра/сек
Цветовое пространство : YUV
Субдискретизация насыщенности : 4:2:0
Битовая глубина : 8 бит
Тип развёртки : Прогрессивная
Метод сжатия : С потерями
Бит/(Пиксели*Кадры) : 0.251
Размер потока : 1,31 Гбайт (89%)
Библиотека кодирования : XviD 1.2.1 (UTC 2008-12-04)
Аудио
Идентификатор : 1
Формат : MPEG Audio
Версия формата : Version 1
Профиль формата : Layer 3
Идентификатор кодека : 55
Идентификатор кодека/Подсказка : MP3
Продолжительность : 2 ч. 40 м.
Вид битрейта : Постоянный
Битрейт : 128 Кбит/сек
Каналы : 2 канала
Частота : 48,0 КГц
Метод сжатия : С потерями
Размер потока : 147 Мбайт (10%)
Выравнивание : Соединение по промежуткам
Продолжительность промежутка : 42 мс. (1,00 видеокадр)
Время предзагрузки промежутка : 504 мс.
Библиотека кодирования : LAME3.99r
Настройки программы : -m s -V 4 -q 2 -lowpass 17 -b 128
-
Скачать

Скачать торрент! Легенда о любви / Sohni Mahiwal (Латиф Файзиев / Latif Faiziyev, Умеш Мехра / Umesh Mehra) [1984, Мелодрама, драма, приключения, DVDRip] Dub, вставки MVO (полная версия)

Как скачивать? · Что такое торрент? · Рейтинг и ограничения

Сайт не распространяет и не хранит электронные версии произведений, а лишь предоставляет доступ к создаваемому пользователями каталогу ссылок на торрент-файлы, которые содержат только списки хеш-сумм

[Профиль] [ЛС]
Показать сообщения:    
Ответить на тему

Текущее время: Сегодня 11:26

Часовой пояс: GMT + 4



Вы не можете начинать темы
Вы не можете отвечать на сообщения
Вы не можете редактировать свои сообщения
Вы не можете удалять свои сообщения
Вы не можете голосовать в опросах
Вы не можете прикреплять файлы к сообщениям
Вы не можете скачивать файлы