Кадры / The Internship (Шон Леви / Shawn Levy) [2013, США, комедия, WEB-DLRip] [Расширенная версия / Unrated] Dub (звук с TS) + Original (Eng)

Ответить на тему
 
Автор Сообщение

user ®

Стаж: 7 лет 7 месяцев

Сообщений: 20008

Пост Пост: #1 от 08-Окт-2013 08:30

[Цитировать]

Кадры / The InternshipРасширенная версия / Unrated
Страна: США
Жанр: комедия
Год выпуска: 2013
Продолжительность: 02:05:15
Перевод: Профессиональный (дублированный) звук с TS
Cубтитры: нет
Оригинальная аудиодорожка: английский
Режиссер: Шон Леви / Shawn Levy
В ролях: Винс Вон, Оуэн Уилсон, Роуз Бирн, Макс Мингелла, Аасиф Мандви, Джош Бренер, Дилан О’Брайэн, Тия Сиркар, Тобит Рафаэль, Джош Гад
Описание: Билли и Ник всю жизнь занимаются продажами. Но новый компьютерный мир рушит их карьеру. Стараясь доказать, что они не отстали от жизни, они бросают вызов судьбе, получив желанную стажировку в компании Google вместе с командой лучших студентов колледжей. Но получить доступ в этот фантастический мир — это только половина дела. Сейчас им придется выдержать конкуренцию с самыми лучшими техническими гениями, чтобы доказать, что необходимость — это мать обновления.

Качество видео: WEB-DLRip [Рип с The Internship 2013 UNRATED 720p WEB DL H264 PublicHD]
Формат видео: AVI
Видео: 720x304 (2.37:1), 23.976 fps, XviD build 73 ~1206 kbps avg, 0.23 bit/pixel
Аудио: 48 kHz, MPEG Layer 3, 2 ch, ~128.00 kbps avg [rus]
Аудио 2: 48 kHz, AC3 Dolby Digital, 3/2 (L,C,R,l,r) + LFE ch, ~320 kbps [eng]
Примечание: Расширенная версия фильма не выходила в прокат, отсутствует примерно 5 минут перевода !

MediaInfo

Complete name :The.Internship.2013.UNRATED.XviD.WEBDL-Rip-ed_rez.avi
Format : AVI
Format/Info : Audio Video Interleave
File size : 1.46 GiB
Duration : 2h 5mn
Overall bit rate : 1 669 Kbps
Movie name : The Internship (2013) UNRATED
Writing application : VirtualDubMod 1.5.10.3 (build 2550/release)
Copyright : ed_rez
Video
ID : 0
Format : MPEG-4 Visual
Format profile : Advanced Simple@L5
Format settings, BVOP : 1
Format settings, QPel : No
Format settings, GMC : No warppoints
Format settings, Matrix : Custom
Codec ID : XVID
Codec ID/Hint : XviD
Duration : 2h 5mn
Bit rate : 1 208 Kbps
Width : 720 pixels
Height : 304 pixels
Display aspect ratio : 2.35:1
Frame rate : 23.976 fps
Color space : YUV
Chroma subsampling : 4:2:0
Bit depth : 8 bits
Scan type : Progressive
Compression mode : Lossy
Bits/(Pixel*Frame) : 0.230
Stream size : 1.06 GiB (72%)
Writing library : XviD 73
Audio #1
ID : 1
Format : MPEG Audio
Format version : Version 1
Format profile : Layer 3
Codec ID : 55
Codec ID/Hint : MP3
Duration : 2h 5mn
Bit rate mode : Constant
Bit rate : 128 Kbps
Channel count : 2 channels
Sampling rate : 48.0 KHz
Compression mode : Lossy
Stream size : 115 MiB (8%)
Alignment : Aligned on interleaves
Interleave, duration : 42 ms (1.00 video frame)
Interleave, preload duration : 504 ms
Audio #2
ID : 2
Format : AC-3
Format/Info : Audio Coding 3
Mode extension : CM (complete main)
Format settings, Endianness : Big
Codec ID : 2000
Duration : 2h 5mn
Bit rate mode : Constant
Bit rate : 320 Kbps
Channel count : 6 channels
Channel positions : Front: L C R, Side: L R, LFE
Sampling rate : 48.0 KHz
Bit depth : 16 bits
Compression mode : Lossy
Stream size : 286 MiB (19%)
Alignment : Split accross interleaves
Interleave, duration : 42 ms (1.00 video frame)
Interleave, preload duration : 500 ms

Скриншоты

Скачать

Скачать торрент!

Как скачивать? · Что такое торрент? · Рейтинг и ограничения

Сайт не распространяет и не хранит электронные версии произведений, а лишь предоставляет доступ к создаваемому пользователями каталогу ссылок на торрент-файлы, которые содержат только списки хеш-сумм

[Профиль] [ЛС]
Показать сообщения:    
Ответить на тему

Текущее время: Сегодня 15:36

Часовой пояс: GMT + 4



Вы не можете начинать темы
Вы не можете отвечать на сообщения
Вы не можете редактировать свои сообщения
Вы не можете удалять свои сообщения
Вы не можете голосовать в опросах
Вы не можете прикреплять файлы к сообщениям
Вы не можете скачивать файлы