Мое сердце очень сильно забилось / Gunde Jaari Gallanthayyinde (Виджай Кумар Конда / Vijay Kumar Konda) [2013, Индия, романтическая комедия, BDRip] + Sub Rus

Ответить на тему
 
Автор Сообщение

user ®

Стаж: 12 лет

Сообщений: 15124

Пост Пост: #1 от 08-Окт-2013 00:50

[Цитировать]

Мое сердце очень сильно забилось / Gunde Jaari Gallanthayyinde
Страна: Индия
Жанр: романтическая комедия
Год выпуска: 2013
Продолжительность: 02:32:45
Перевод: Субтитры
Cубтитры: русские
Оригинальная аудиодорожка: телугу
Перевод субтитров: Wita
Режиссер: Виджай Кумар Конда / Vijay Kumar Konda
В ролях: Нитин, Нитья Менен, Иша Талвар, Мадхунандам, Али, Ахути Прасад
Описание: Бывает ли любовь с первого взгляда? Картик (Нитин) поначалу скептически относился к этому, а тут вдруг раз, и... Незнакомка ушла, осталось лишь фото на мобильном телефоне. А что делать, когда просишь друзей оказать услугу – найти телефон прекрасной незнакомки, а друзья по пьяни путают цифры телефонного номера? И тогда влюбленный парень начинает через звонки кадрить девушку, которая на самом деле не имеет к нему никакого отношения. Теперь посмотрим с другой стороны: что делать Шравани (Нитья Менен), когда ей на телефон звонит незнакомый парень и очень сильно хочет стать другом, при этом он согласен ничего о ней не знать и не встречаться? Она согласилась, и очень скоро сердце ее затрепетало от предчувствия, что она нашла своего идеального парня. Телефонный роман – разве такое возможно? В принципе да. Но уж коли он начался с путаницы, то и финал у него сложно предугадать.
Дополнительно: Прошу не выкладывать субтитры на других ресурсах без моего на то разрешения.
Использование субтитров в коммерческих целях не предусматривается

Сэмпл: http://multi-up.com/910766
Качество видео: BDRip (исходник: BDRip - XviD - 1/2DVDr (AC3 5.1 Audio + English Subs))
Формат видео: AVI
Видео: XviD, 720х304, 2.35:1, 24.000 fps, 2 098 Kbps
Аудио: AC-3, 48.0 kHz, 489 Kbps, 6 channels, Original
Формат субтитров: hardsub (неотключаемые)

MediaInfo

I:\кино - Индия\Gunde Jaari Gallanthayyinde (2013)
Format : AVI
Format/Info : Audio Video Interleave
Format profile : OpenDML
File size : 2.73 GiB
Duration : 2h 32mn
Overall bit rate : 2 557 Kbps
Writing application : VirtualDubMod 1.5.10.2 (build 2542/release)
Writing library : VirtualDubMod build 2542/release
Video #0
ID : 0
Format : MPEG-4 Visual
Format profile : Advanced Simple@L5
Format settings, BVOP : 2
Format settings, QPel : No
Format settings, GMC : No warppoints
Format settings, Matrix : Default (H.263)
Muxing mode : Packed bitstream
Codec ID : XVID
Codec ID/Hint : XviD
Duration : 2h 32mn
Bit rate : 2 098 Kbps
Width : 720 pixels
Height : 304 pixels
Display aspect ratio : 2.35:1
Frame rate : 24.000 fps
Color space : YUV
Chroma subsampling : 4:2:0
Bit depth : 8 bits
Scan type : Progressive
Compression mode : Lossy
Bits/(Pixel*Frame) : 0.399
Stream size : 2.24 GiB (82%)
Writing library : XviD 1.2.1 (UTC 2008-12-04)
Audio #1
ID : 1
Format : AC-3
Format/Info : Audio Coding 3
Mode extension : CM (complete main)
Codec ID : 2000
Duration : 2h 32mn
Bit rate mode : Constant
Bit rate : 448 Kbps
Channel(s) : 6 channels
Channel positions : Front: L C R, Side: L R, LFE
Sampling rate : 48.0 KHz
Bit depth : 16 bits
Compression mode : Lossy
Stream size : 489 MiB (18%)
Alignment : Split accross interleaves
Interleave, duration : 42 ms (1.00 video frame)
Interleave, preload duration : 500 ms

Скриншот c названием фильма

Скриншоты





Скачать

Скачать торрент! Мое сердце очень сильно забилось / Gunde Jaari Gallanthayyinde (Виджай Кумар Конда / Vijay Kumar Konda) [2013, Индия, романтическая комедия, BDRip] + Sub Rus

Как скачивать? · Что такое торрент? · Рейтинг и ограничения

Сайт не распространяет и не хранит электронные версии произведений, а лишь предоставляет доступ к создаваемому пользователями каталогу ссылок на торрент-файлы, которые содержат только списки хеш-сумм

[Профиль] [ЛС]
Показать сообщения:    
Ответить на тему

Текущее время: Сегодня 13:24

Часовой пояс: GMT + 4



Вы не можете начинать темы
Вы не можете отвечать на сообщения
Вы не можете редактировать свои сообщения
Вы не можете удалять свои сообщения
Вы не можете голосовать в опросах
Вы не можете прикреплять файлы к сообщениям
Вы не можете скачивать файлы