Похищение меча / Кража меча / Путь меча / Rape of the Sword / Stealing Sword / Dao jian (Юэ Фэн / Yue Feng) [1967, Гонконг, боевые искусства, DVDRip] VO (Ghostface)

Ответить на тему
 
Автор Сообщение

user ®

Стаж: 11 лет

Сообщений: 15151

Пост Пост: #1 от 07-Окт-2013 21:40

[Цитировать]

Похищение меча / Кража меча / Путь меча / Rape of the Sword / Stealing Sword / Dao jian
Страна: Гонконг
Жанр: боевые искусства
Год выпуска: 1967
Продолжительность: 01:18:26
Перевод: Одноголосый закадровый Ghostface
Cубтитры: нет
Режиссер: Юэ Фэн / Yue Feng
В ролях: Ли Лихуа, Ли Цзин, Цяо Чжуан, Чен Хунг-Лье, Тянь Фэн, Ку Фенг, Тан Ди, Ли Юньчжун, Ян Чжицин, Фань Мэйшэн, Хао Люйжэнь
Описание: Последний драгоценный меч мира боевых искусств похищен предателем, убившим своего учителя и братьев. Злодей передаёт меч императору, получая за своё предательство место сановника. Однако по его следам идут народные мстители, не забывшие свершенных злодеяний и готовые бороться со злом до конца своей жизни.
Сэмпл: http://multi-up.com/910746
Качество видео: DVDRip
Формат видео: AVI
Видео: 720x304 (2.37:1), 23.976 fps, XviD build 50 ~2356 kbps avg, 0.45 bit/pixel
Аудио: 48 kHz, MPEG Layer 3, 2 ch, ~128.00 kbps avg

MediaInfo

Format : AVI
Format/Info : Audio Video Interleave
File size : 1,37 Гбайт
Duration : 1 ч. 18 м.
Overall bit rate : 2494 Кбит/сек
Writing application : VirtualDubMod 1.5.10.3 | www.virtualdub-fr.org || (build 2550/release)
Writing library : VirtualDubMod build 2550/release
Видео
ID : 0
Format : MPEG-4 Visual
Format profile : Advanced Simple@L5
Format settings, BVOP : 2
Format settings, QPel : Нет
Format settings, GMC : Без точки перехода
Format settings, Matrix : Default (MPEG)
Codec ID : XVID
Codec ID/Hint : XviD
Duration : 1 ч. 18 м.
Bit rate : 2357 Кбит/сек
Width : 720 пикселей
Height : 304 пикселя
Display aspect ratio : 2,35:1
Frame rate : 23,976 кадра/сек
Color space : YUV
Chroma subsampling : 4:2:0
Bit depth : 8 бит
Scan type : Прогрессивная
Compression mode : С потерями
Bits/(Pixel*Frame) : 0.449
Stream size : 1,29 Гбайт (94%)
Writing library : XviD 1.2.1 (UTC 2008-12-04)
Аудио
ID : 1
Format : MPEG Audio
Format version : Version 1
Format profile : Layer 3
Codec ID : 55
Codec ID/Hint : MP3
Duration : 1 ч. 18 м.
Bit rate mode : Постоянный
Bit rate : 128 Кбит/сек
Channel(s) : 2 канала
Sampling rate : 48,0 КГц
Compression mode : С потерями
Stream size : 71,8 Мбайт (5%)
Alignment : Соединение по промежуткам
Interleave, duration : 42 мс. (1,00 видеокадр)
Interleave, preload duration : 504 мс.
Writing library : LAME3.99r
Encoding settings : -m s -V 4 -q 2 -lowpass 17 -b 128

Скриншот c названием фильма

Скриншоты

Скачать

Скачать торрент! Похищение меча / Кража меча / Путь меча / Rape of the Sword / Stealing Sword / Dao jian (Юэ Фэн / Yue Feng) [1967, Гонконг, боевые искусства, DVDRip] VO (Ghostface)

Как скачивать? · Что такое торрент? · Рейтинг и ограничения

Сайт не распространяет и не хранит электронные версии произведений, а лишь предоставляет доступ к создаваемому пользователями каталогу ссылок на торрент-файлы, которые содержат только списки хеш-сумм

[Профиль] [ЛС]
Показать сообщения:    
Ответить на тему

Текущее время: Сегодня 12:01

Часовой пояс: GMT + 4



Вы не можете начинать темы
Вы не можете отвечать на сообщения
Вы не можете редактировать свои сообщения
Вы не можете удалять свои сообщения
Вы не можете голосовать в опросах
Вы не можете прикреплять файлы к сообщениям
Вы не можете скачивать файлы