Эта безумная молодежь / Эта сумасшедшая молодёжь / Yeh Jawaani Hai Deewani (Аян Мукхерджи / Ayan Mukherjee) [2013, Индия, Комедия, мелодрама, HDRip] MVO + Original + Sub Rus

Ответить на тему
 
Автор Сообщение

user ®

Стаж: 12 лет

Сообщений: 15125

Пост Пост: #1 от 07-Окт-2013 15:20

[Цитировать]

Эта безумная молодежь / Эта сумасшедшая молодёжь / Yeh Jawaani Hai Deewani
Страна: Индия
Жанр: Комедия, мелодрама
Год выпуска: 2013
Продолжительность: 02:40:18
Перевод: Любительский (многоголосый закадровый) IndianCinemaGroup
Cубтитры: Русские - полные и на тексты песен
Оригинальная аудиодорожка: Хинди
Режиссер: Аян Мукхерджи / Ayan Mukherjee
В ролях: Ранбир Капур, Дипика Падукон, Калки Коечлин, Адитья Рой Капур, Кунал Рой Капур, Пурна Джаганнатхан, Эвелин Шарма, Навин Каушик
Описание: О, эта сумасшедшая молодёжь! О, эти безумные мечты, надежды, веселье, путешествия, свобода, дружба и любовь! В этом водовороте оказались два главных героя, две противоположности: Нэйна Талвар (Дипика Падуконе), прилежная ученица-очкарик, и Банни (Ранбир Капур), беззаботный путешественник, свободный как ветер, которому скучно жить банальной жизнью «образование-карьера-жена-дети-пенсия». Вместе со своими лучшими друзьями - Адити (Калки Коечлин), девчонкой-сорванцом, и Ави (Адитья Рой Капур), шутником-балагуром, - он отправляется в путешествие в горы, где встречает Нэйну, свою бывшую одноклассницу. И тут начинается история. История робких желаний и диких безумств, уютного тепла и крылатой свободы, мучительных расставаний и радостных встреч, нерушимой дружбы и нежной любви…
Доп. информация: Релиз
Перевод: Rummata (Спасибо!)
Озвучка: IndianCinemaGroup (Спасибо!)
Сэмпл: http://multi-up.com/910611
Качество видео: HDRip (Исходник BDRip (720p))
Формат видео: AVI
Видео: XviD MPEG-4, 720x304 (2.37:1), 24.000 fps, 1279 kbps avg
Аудио: Russian AC3 Dolby Digital, 48 kHz, 3/2 (L,C,R,l,r) + LFE ch, 448.00 kbps avg
Аудио 2: Hindi AC3 Dolby Digital, 48 kHz, 2/0 (L,R), 224.00 kbps avg

MediaInfo

General
Complete name : D:\Yeh.Jawaani.Hai.Deewani.2013.HDRip.Rus.Original.ICG.GeneralFilm\Yeh.Jawaani.Hai.Deewani.2013.HDRip.Rus.Original.ICG.GeneralFilm.avi
Format : AVI
Format/Info : Audio Video Interleave
Format profile : OpenDML
File size : 2.19 GiB
Duration : 2h 40mn
Overall bit rate : 1 959 Kbps
Writing application : VirtualDubModRus 1.5.10.2 (build 2542/release)
Writing library : VirtualDubMod build 2542/release
Video
ID : 0
Format : MPEG-4 Visual
Format profile : AdvancedSimple@L5
Format settings, BVOP : Yes
Format settings, QPel : No
Format settings, GMC : No warppoints
Format settings, Matrix : Custom
Codec ID : XVID
Codec ID/Hint : XviD
Duration : 2h 40mn
Bit rate : 1 269 Kbps
Width : 720 pixels
Height : 304 pixels
Display aspect ratio : 2.35
Frame rate : 24.000 fps
Resolution : 24 bits
Colorimetry : 4:2:0
Scan type : Progressive
Bits/(Pixel*Frame) : 0.242
Stream size : 1.42 GiB (65%)
Writing library : XviD 64
Audio #1
ID : 1
Format : AC-3
Format/Info : Audio Coding 3
Codec ID : 2000
Duration : 2h 40mn
Bit rate mode : Constant
Bit rate : 448 Kbps
Channel(s) : 6 channels
Channel positions : Front: L C R, Surround: L R, LFE
Sampling rate : 48.0 KHz
Stream size : 514 MiB (23%)
Alignment : Split accross interleaves
Interleave, duration : 42 ms (1.00 video frame)
Interleave, preload duration : 500 ms
Audio #2
ID : 2
Format : AC-3
Format/Info : Audio Coding 3
Codec ID : 2000
Duration : 2h 40mn
Bit rate mode : Constant
Bit rate : 224 Kbps
Channel(s) : 2 channels
Channel positions : L R
Sampling rate : 48.0 KHz
Stream size : 257 MiB (11%)
Alignment : Aligned on interleaves
Interleave, duration : 42 ms (1.00 video frame)
Interleave, preload duration : 512 ms

Скриншот c названием фильма

Скриншоты

Скачать

Скачать торрент! Эта безумная молодежь / Эта сумасшедшая молодёжь / Yeh Jawaani Hai Deewani (Аян Мукхерджи / Ayan Mukherjee) [2013, Индия, Комедия, мелодрама, HDRip] MVO + Original + Sub Rus

Как скачивать? · Что такое торрент? · Рейтинг и ограничения

Сайт не распространяет и не хранит электронные версии произведений, а лишь предоставляет доступ к создаваемому пользователями каталогу ссылок на торрент-файлы, которые содержат только списки хеш-сумм

[Профиль] [ЛС]
Показать сообщения:    
Ответить на тему

Текущее время: Сегодня 17:11

Часовой пояс: GMT + 4



Вы не можете начинать темы
Вы не можете отвечать на сообщения
Вы не можете редактировать свои сообщения
Вы не можете удалять свои сообщения
Вы не можете голосовать в опросах
Вы не можете прикреплять файлы к сообщениям
Вы не можете скачивать файлы