Под прицелом / Под нажимом / Pressed / Underground Hitman (Джастин Доннелли / Justin Donnelly) [2011, Канада, боевик, триллер, драма, криминал, BDRip 1080p] MVO (R5) + Original (Eng) + Sub (Ger)

Ответить на тему
 
Автор Сообщение

user ®

Стаж: 7 лет 7 месяцев

Сообщений: 20008

Пост Пост: #1 от 06-Окт-2013 20:00

[Цитировать]

Под прицелом / Под нажимом / Pressed / Underground Hitman Страна: Канада
Студия: Donnelly Entertainment Group, QubeFilm
Жанр: боевик, триллер, драма, криминал
Год выпуска: 2011
Продолжительность: 01:45:04
Перевод: Профессиональный (многоголосый закадровый) R5
Cубтитры: немецкие
Оригинальная аудиодорожка: английский
Режиссер: Джастин Доннелли / Justin Donnelly
В ролях: Люк Госс, Тайлер Джонстон, Джеффри Баллард, Майкл Эклунд, Эрика Кэрролл, Эндрю Хедж, Крэйг Станьетта, Таня Шампу, Мишель Брезински, Р. Камерон Гордон
Описание:
Парочка угонщиков машин, Джэсси и Сэм обнаруживают кое-что на заднем сидении автомобиля, что может круто изменить их жизнь. Брайан, не знакомый Джэсси и Сэму, заключает коммерческую сделку, которая поможет ему снова забраться на вершину одной из крупнейших инвестиционных фирм.
- || -Тип релиза: BDRip 1080p (рип от HDS)

Контейнер: MKV
Видео: AVC (x264), 1920x816 (2,35:1) at 23,976 fps, 10200 Кbps, 0.272 bpp
Аудио 1: AC3; 192 Kbps; CBR; 2 ch; 48 khz | P, MVO - R5 |
Аудио 2: DTS; 1536 Kbps; CBR; 6 ch; 48 khz; 24 bit | Английский |
Формат субтитров: softsub (SRT)

Скриншоты || x264 Info || MediaInfo || Notes

Notes:

  • Аудио дорожка №1 взята с этой [url=http://***/forum/viewtopic.php?t=4056095]раздачи[/url], thx: vlaa8
  • На DVD русская дорожка оказалась дутой: во фронтах вместо фронтов был центр, а в задниках ... и в них тоже центр
  • Рип с немецкого блюрея, на нём нету английских субтитров, а те что бродят по сети - гугло транслейт

MediaInfo

Общее
Уникальный идентификатор                 : 242594932696812432987285358414932710729 (0xB68215A35909D490AC4DDAFBE4479549)
Полное имя                               : Под нажимом.2011.P.1080p.BluRay.x264-HDS.mkv
Формат                                   : Matroska
Версия формата                           : Version 4 / Version 2
Размер файла                             : 8,73 Гбайт
Продолжительность                        : 1 ч. 45 м.
Общий поток                              : 11,9 Мбит/сек
Название фильма                          : profile.php?mode=viewprofile&u=22488948
Дата кодирования                         : UTC 2013-09-21 13:28:23
Программа кодирования                    : mkvmerge v6.4.1 ('Omega Point') built on Sep 16 2013 22:05:10
Библиотека кодирования                   : libebml v1.3.0 + libmatroska v1.4.1
Видео
Идентификатор                            : 1
Формат                                   : AVC
Формат/Информация                        : Advanced Video Codec
Профиль формата                          : High@L4.1
Параметр CABAC формата                   : Да
Параметр ReFrames формата                : 5 кадров
Идентификатор кодека                     : V_MPEG4/ISO/AVC
Продолжительность                        : 1 ч. 45 м.
Битрейт                                  : 10,2 Мбит/сек
Ширина                                   : 1920 пикселей
Высота                                   : 816 пикселей
Соотношение сторон                       : 2,35:1
Режим частоты кадров                     : Постоянный
Частота кадров                           : 23,976 кадра/сек
Цветовое пространство                    : YUV
Субдискретизация насыщенности            : 4:2:0
Битовая глубина                          : 8 бит
Тип развёртки                            : Прогрессивная
Бит/(Пиксели*Кадры)                      : 0.272
Размер потока                            : 7,31 Гбайт (84%)
Библиотека кодирования                   : x264 core 129 r2230 1cffe9f
Настройки программы                      : cabac=1 / ref=5 / deblock=1:-3:-3 / analyse=0x3:0x113 / me=umh / subme=10 / psy=1 / psy_rd=1.20:0.00 / mixed_ref=1 / me_range=32 / chroma_me=1 / trellis=2 / 8x8dct=1 / cqm=0 / deadzone=21,11 / fast_pskip=0 / chroma_qp_offset=-2 / threads=12 / lookahead_threads=2 / sliced_threads=0 / nr=0 / decimate=1 / interlaced=0 / bluray_compat=0 / constrained_intra=0 / bframes=9 / b_pyramid=2 / b_adapt=2 / b_bias=0 / direct=3 / weightb=1 / open_gop=0 / weightp=2 / keyint=250 / keyint_min=23 / scenecut=40 / intra_refresh=0 / rc=2pass / mbtree=0 / bitrate=10200 / ratetol=1.0 / qcomp=0.60 / qpmin=0 / qpmax=69 / qpstep=4 / cplxblur=20.0 / qblur=0.5 / ip_ratio=1.40 / pb_ratio=1.30 / aq=1:1.10
Язык                                     : English
Default                                  : Да
Forced                                   : Нет
Аудио #1
Идентификатор                            : 2
Формат                                   : AC-3
Формат/Информация                        : Audio Coding 3
Расширение режима                        : CM (complete main)
Параметр Endianness формата              : Big
Идентификатор кодека                     : A_AC3
Продолжительность                        : 1 ч. 45 м.
Вид битрейта                             : Постоянный
Битрейт                                  : 192 Кбит/сек
Каналы                                   : 2 канала
Расположение каналов                     : Front: L R
Частота                                  : 48,0 КГц
Битовая глубина                          : 16 бит
Метод сжатия                             : С потерями
Размер потока                            : 144 Мбайт (2%)
Заголовок                                : P, MVO [R5]
Язык                                     : Russian
Default                                  : Да
Forced                                   : Нет
Аудио #2
Идентификатор                            : 3
Формат                                   : DTS
Формат/Информация                        : Digital Theater Systems
Режим                                    : 16
Параметр Endianness формата              : Big
Идентификатор кодека                     : A_DTS
Продолжительность                        : 1 ч. 45 м.
Вид битрейта                             : Постоянный
Битрейт                                  : 1509 Кбит/сек
Каналы                                   : 6 каналов
Расположение каналов                     : Front: L C R, Side: L R, LFE
Частота                                  : 48,0 КГц
Битовая глубина                          : 24 бит
Метод сжатия                             : С потерями
Размер потока                            : 1,11 Гбайт (13%)
Язык                                     : English
Default                                  : Нет
Forced                                   : Нет
Текст
Идентификатор                            : 4
Формат                                   : UTF-8
Идентификатор кодека                     : S_TEXT/UTF8
Идентификатор кодека/Информация          : UTF-8 Plain Text
Язык                                     : German
Default                                  : Нет
Forced                                   : Нет
Меню
00:00:00.000                             : en:00:00:00.000
00:10:04.771                             : en:00:10:04.771
00:20:16.799                             : en:00:20:16.799
00:32:48.341                             : en:00:32:48.341
00:38:39.484                             : en:00:38:39.484
00:46:43.175                             : en:00:46:43.175
00:59:54.174                             : en:00:59:54.174
01:06:28.359                             : en:01:06:28.359
01:11:28.451                             : en:01:11:28.451
01:23:55.405                             : en:01:23:55.405
01:37:39.645                             : en:01:37:39.645
01:41:25.663                             : en:01:41:25.663

x264 Info

x264 [info]: frame I:865 Avg QP:10.90 size:207384
x264 [info]: frame P:35777 Avg QP:12.90 size: 92529
x264 [info]: frame B:114515 Avg QP:14.12 size: 39698
Скачать

Скачать торрент!

Как скачивать? · Что такое торрент? · Рейтинг и ограничения

Сайт не распространяет и не хранит электронные версии произведений, а лишь предоставляет доступ к создаваемому пользователями каталогу ссылок на торрент-файлы, которые содержат только списки хеш-сумм

[Профиль] [ЛС]
Показать сообщения:    
Ответить на тему

Текущее время: Сегодня 16:14

Часовой пояс: GMT + 4



Вы не можете начинать темы
Вы не можете отвечать на сообщения
Вы не можете редактировать свои сообщения
Вы не можете удалять свои сообщения
Вы не можете голосовать в опросах
Вы не можете прикреплять файлы к сообщениям
Вы не можете скачивать файлы