Герой / Hero / 英雄 (Чжан Имоу / Zhang Yimou) [2002, Гонконг, Китай, Древнекитайский эпос, восточные единоборства, DVDRip] [Extended cut / Режиссёрская версия] russubs (Antonio)

Ответить на тему
 
Автор Сообщение

user ®

Стаж: 13 лет

Сообщений: 15071

Пост Пост: #1 от 06-Окт-2013 16:50

[Цитировать]

Герой / Hero / 英雄 / Extended cut / Режиссёрская версия
Страна: Гонконг, Китай
Жанр: Древнекитайский эпос, восточные единоборства
Год выпуска: 2002
Продолжительность: 01:49:48
Перевод: Субтитры - Antonio, редактура Crimson Andrew
Cубтитры: русские
Оригинальная аудиодорожка: mandarin
Режиссер: Чжан Имоу
В ролях: Джет Ли, Тони Люн Чу Вай, Мэгги Чун, Чжан Цзыи, Чэнь Даомин, Донни Ен, Чжэн Тяньюн
Описание: Китай расколот на княжества, но уже есть лидер, который хочет покорить соседей и стать императором объединенной страны. К нему засланы убийцы, безукоризненно владеющие боевыми искусствами; у них фольклорные имена Сломанный Меч, Летящий Снег и Небо.
Их противник обозначен как Безымянный, он хочет защитить императора. Его разговор с Всесильным образует раму, скрепляющую несколько ретроспектив — поединков с убийцами. Он рассказывает об этих поединках как сказку, где истину не отличишь от выдумки. Своя версия есть и у императора.
Качество видео: DVDRip
Формат видео: AVI
Видео: Xvid 720x304 23.98fps 1464Kbps, AR 2.35, 0.279 bits/pixel
Аудио: Dolby AC3 48000Hz 6 Audio Channel 384Kbps
Формат субтитров: softsub (SRT)
Рип совместим с бытовыми DivX плеерами

MediaInfo

General
Complete name : C:\Torrent\Hero\HERO.avi
Format : AVI
Format/Info : Audio Video Interleave
File size : 1.42 GiB
Duration : 1h 49mn
Overall bit rate : 1 857 Kbps
Video
Format : MPEG-4 Visual
Format profile : Streaming Video@L1
Format settings, BVOP : Yes
Format settings, QPel : No
Format settings, GMC : No warppoints
Format settings, Matrix : Default
Codec ID : XVID
Codec ID/Hint : XviD
Duration : 1h 49mn
Bit rate : 1 464 Kbps
Width : 720 pixels
Height : 304 pixels
Display aspect ratio : 2.35
Frame rate : 23.976 fps
Resolution : 24 bits
Colorimetry : 4:2:0
Scan type : Progressive
Bits/(Pixel*Frame) : 0.279
Stream size : 1.12 GiB (79%)
Writing library : XviD 65
Audio
Format : AC-3
Format/Info : Audio Coding 3
Codec ID : 2000
Duration : 1h 49mn
Bit rate mode : Constant
Bit rate : 384 Kbps
Channel(s) : 6 channels
Channel positions : Front: L C R, Surround: L R, LFE
Sampling rate : 48.0 KHz
Resolution : 16 bits
Stream size : 301 MiB (21%)
Alignment : Aligned on interleaves
Interleave, duration : 42 ms (1.00 video frame)

Скриншот Bitrate Viewer

Скриншоты

Скачать

Скачать торрент! Герой / Hero / 英雄 (Чжан Имоу / Zhang Yimou) [2002, Гонконг, Китай, Древнекитайский эпос, восточные единоборства, DVDRip] [Extended cut / Режиссёрская версия] russubs (Antonio)

Как скачивать? · Что такое торрент? · Рейтинг и ограничения

Сайт не распространяет и не хранит электронные версии произведений, а лишь предоставляет доступ к создаваемому пользователями каталогу ссылок на торрент-файлы, которые содержат только списки хеш-сумм

[Профиль] [ЛС]
Показать сообщения:    
Ответить на тему

Текущее время: Сегодня 16:02

Часовой пояс: GMT + 4



Вы не можете начинать темы
Вы не можете отвечать на сообщения
Вы не можете редактировать свои сообщения
Вы не можете удалять свои сообщения
Вы не можете голосовать в опросах
Вы не можете прикреплять файлы к сообщениям
Вы не можете скачивать файлы