Шанхай, Шанхай / Shanghai, Shanghai / Luan shi er nu (Тедди Робин Кван / Teddy Robin Kwan) [1990, Гонконг, боевик, комедия, DVDRip] AVO (Дольский) + Original Chi

Ответить на тему
 
Автор Сообщение

user ®

Стаж: 11 лет

Сообщений: 15151

Пост Пост: #1 от 05-Окт-2013 23:30

[Цитировать]

Шанхай, Шанхай / Shanghai, Shanghai / Luan shi er nu
Страна: Гонконг
Жанр: боевик, комедия
Год выпуска: 1990
Продолжительность: 01:23:23
-
Перевод: Авторский (одноголосый закадровый) Андрей Дольский
Cубтитры: нет
Оригинальная аудиодорожка: китайский
-
Режиссер: Тедди Робин Кван / Teddy Robin Kwan
В ролях: Юэнь Бяо, Анита Муи, Саммо Хунг Кам-Бо, Джордж Лам, Лоуренс Чэн, Сэнди Лам, Лье Ло, Хой Ман, Луис Рот, Ниу Тиен
-
Описание: Из небольшого городка в Шанхай приезжает Маленький Тигр, где уже давно живет его старший брат Большой Тигр, который является полицейским офицером. Маленький Тигр знакомится с членами акробатической труппы, с которыми не только выбирается из ряда передряг, но и начинают работать на местного мафиози, мистера Чина. В городе появляется Тинг-Тинг, приехавшая расследовать дело с пропавшими деньгами революционеров, у нее когда-то с Большим Тигром был роман. Подозрение о пропаже падает на мистера Чина, который к тому-же является крестным отцом Тинг-Тинг…
-

-
Качество видео: DVDRip
Формат видео: AVI
Видео: 640x368 (1.74:1), 23.976 fps, XviD build 73 ~2098 kbps avg, 0.37 bit/pixel
Аудио 1: 48 kHz, AC3 Dolby Digital, 2/0 (L,R) ch, ~192 kbps RUS
Аудио 2: 48 kHz, AC3 Dolby Digital, 2/0 (L,R) ch, ~192 kbps CHI

Сравнение скриншотов

[url=http://***/forum/viewtopic.php?t=1499508]http://***/forum/viewtopic.php?t=1499508[/url] http://screenshotcomparison.com/comparison/43477/picture:2

MediaInfo

General
Complete name : D:\Релизы\Shanghai, Shanghai.1990.RUS.CHI.DVDRip.XviD.AC3.avi
Format : AVI
Format/Info : Audio Video Interleave
File size : 1.45 GiB
Duration : 1h 23mn
Overall bit rate : 2 498 Kbps
Writing application : VirtualDubMod 1.5.10.2 (build 2540/release)
Writing library : VirtualDubMod build 2540/release
Video
ID : 0
Format : MPEG-4 Visual
Format profile : Advanced Simple@L5
Format settings, BVOP : 1
Format settings, QPel : No
Format settings, GMC : No warppoints
Format settings, Matrix : Custom
Codec ID : XVID
Codec ID/Hint : XviD
Duration : 1h 23mn
Bit rate : 2 099 Kbps
Width : 640 pixels
Height : 368 pixels
Display aspect ratio : 1.739
Frame rate : 23.976 fps
Color space : YUV
Chroma subsampling : 4:2:0
Bit depth : 8 bits
Scan type : Progressive
Compression mode : Lossy
Bits/(Pixel*Frame) : 0.372
Stream size : 1.22 GiB (84%)
Writing library : XviD 73
Audio #1
ID : 1
Format : AC-3
Format/Info : Audio Coding 3
Format profile : Dolby Digital
Mode extension : CM (complete main)
Format settings, Endianness : Big
Codec ID : 2000
Duration : 1h 23mn
Bit rate mode : Constant
Bit rate : 192 Kbps
Channel(s) : 2 channels
Channel positions : Front: L R
Sampling rate : 48.0 KHz
Bit depth : 16 bits
Compression mode : Lossy
Stream size : 115 MiB (8%)
Alignment : Split accross interleaves
Interleave, duration : 42 ms (1.00 video frame)
Interleave, preload duration : 500 ms
Audio #2
ID : 2
Format : AC-3
Format/Info : Audio Coding 3
Mode extension : CM (complete main)
Format settings, Endianness : Big
Codec ID : 2000
Duration : 1h 23mn
Bit rate mode : Constant
Bit rate : 192 Kbps
Channel(s) : 2 channels
Channel positions : Front: L R
Sampling rate : 48.0 KHz
Bit depth : 16 bits
Compression mode : Lossy
Stream size : 115 MiB (8%)
Alignment : Split accross interleaves
Interleave, duration : 42 ms (1.00 video frame)
Interleave, preload duration : 500 ms

Скриншоты

Скачать

Скачать торрент! Шанхай, Шанхай / Shanghai, Shanghai / Luan shi er nu (Тедди Робин Кван / Teddy Robin Kwan) [1990, Гонконг, боевик, комедия, DVDRip] AVO (Дольский) + Original Chi

Как скачивать? · Что такое торрент? · Рейтинг и ограничения

Сайт не распространяет и не хранит электронные версии произведений, а лишь предоставляет доступ к создаваемому пользователями каталогу ссылок на торрент-файлы, которые содержат только списки хеш-сумм

[Профиль] [ЛС]
Показать сообщения:    
Ответить на тему

Текущее время: Сегодня 04:57

Часовой пояс: GMT + 4



Вы не можете начинать темы
Вы не можете отвечать на сообщения
Вы не можете редактировать свои сообщения
Вы не можете удалять свои сообщения
Вы не можете голосовать в опросах
Вы не можете прикреплять файлы к сообщениям
Вы не можете скачивать файлы