Полет начинается с земли (Нерсес Оганесян) [1980, драма, SATRip]

Ответить на тему
 
Автор Сообщение

user ®

Стаж: 7 лет 7 месяцев

Сообщений: 20008

Пост Пост: #1 от 05-Окт-2013 20:20

[Цитировать]

Полет начинается с земли 2 серии
Жанр: драма
Год выпуска: 1980
Продолжительность: 02:06:51
Режиссёр: Нерсес Оганесян
В ролях:
Хорен Абрамян,
Армен Джигарханян,
Люся (Людмила) Оганесян,
Анаида Топчиян,
Верджалуйс Мириджанян,
Георгий Асланян,
Ашот Меликджанян,
Аветик Джрагацпанян,
Вреж Акопян,
Леонард Саркисов,
Марика Тумасова

Описание: Действие телефильма разворачивается в провинциальном аэропорту, куда приезжает теперь уже ставший знаменитым летчик, начинавший свой путь отсюда.
Многое в этом узко-семейном мирке теперь ему чуждо и непонятно.

Сэмпл: http://sendfile.su/876892
Качество видео: SATRip
Формат видео: AVI
Видео: Xvid, 640x480, 25fps, 1493Kbps Bits/Pixel : 0.194
Аудио: MP3, 48 kHz, 2 channels, 128 kbps

MediaInfo

General
Complete name : Z:\Наше кино\Рипы_745\Полет начинается с земли SATRIp_Эталон67.avi
Format : AVI
Format/Info : Audio Video Interleave
File size : 1.44 GiB
Duration : 2h 6mn
Overall bit rate : 1 630 Kbps
Director : Эталон67
Writing application : VirtualDubMod 1.5.10.2 (build 2540/release)
Writing library : VirtualDubMod build 2540/release
Video
ID : 0
Format : MPEG-4 Visual
Format profile : Advanced Simple@L5
Format settings, BVOP : 1
Format settings, QPel : No
Format settings, GMC : No warppoints
Format settings, Matrix : Default (H.263)
Codec ID : XVID
Codec ID/Hint : XviD
Duration : 2h 6mn
Bit rate : 1 493 Kbps
Width : 640 pixels
Height : 480 pixels
Display aspect ratio : 4:3
Frame rate : 25.000 fps
Color space : YUV
Chroma subsampling : 4:2:0
Bit depth : 8 bits
Scan type : Progressive
Compression mode : Lossy
Bits/(Pixel*Frame) : 0.194
Stream size : 1.32 GiB (92%)
Writing library : XviD 1.2.1 (UTC 2008-12-04)
Audio
ID : 1
Format : MPEG Audio
Format version : Version 1
Format profile : Layer 3
Codec ID : 55
Codec ID/Hint : MP3
Duration : 2h 6mn
Bit rate mode : Constant
Bit rate : 128 Kbps
Channel(s) : 2 channels
Sampling rate : 48.0 KHz
Compression mode : Lossy
Stream size : 116 MiB (8%)
Alignment : Aligned on interleaves
Interleave, duration : 40 ms (1.00 video frame)
Interleave, preload duration : 504 ms
Writing library : LAME3.99r
Encoding settings : -m s -V 4 -q 2 -lowpass 17 -b 128

Скриншот c названием фильма

Скачать

Скачать торрент!

Как скачивать? · Что такое торрент? · Рейтинг и ограничения

Сайт не распространяет и не хранит электронные версии произведений, а лишь предоставляет доступ к создаваемому пользователями каталогу ссылок на торрент-файлы, которые содержат только списки хеш-сумм

[Профиль] [ЛС]
Показать сообщения:    
Ответить на тему

Текущее время: Сегодня 14:08

Часовой пояс: GMT + 4



Вы не можете начинать темы
Вы не можете отвечать на сообщения
Вы не можете редактировать свои сообщения
Вы не можете удалять свои сообщения
Вы не можете голосовать в опросах
Вы не можете прикреплять файлы к сообщениям
Вы не можете скачивать файлы