Гонка / Rush / Hard rush (Джорджо Серафини / Giorgio Serafini) [2013, США, Германия, Великобритания, боевик, драма, биография, спорт, HDRip] DVO

Ответить на тему
 
Автор Сообщение

user ®

Стаж: 7 лет 7 месяцев

Сообщений: 20008

Пост Пост: #1 от 05-Окт-2013 06:10

[Цитировать]

Гонка / Rush / Hard rush
Страна: США, Германия, Великобритания
Жанр: боевик, драма, биография, спорт
Год выпуска: 2013
Продолжительность: 01:36:51
Перевод: Любительский (двухголосый закадровый) парочка
Cубтитры: нет
Режиссер: Джорджо Серафини / Giorgio Serafini
В ролях: Дольф Лундгрен, Винни Джонс, Рэнди Кутюр, Джанни Капальди, Карли Поуп, Сьюзи Абромейт, Дэниэл Бонжур, Холли Линч, Синтия Борначелли, Майкл Ривера
Описание: Действие в боевике разворачивается в Лос-Анджелесе, где события характеризуются лихорадочным стечением обстоятельств. Агенту Максвеллу везет, его дело венчается успехом, операция по ликвидации одной из местных группировок, которая занималась контрабандой кокаина – успешно завершена, в руках правоохранительных органов оказывается преступный главарь – Винсент Камастра, чья поимка принесла немало проблем секретным агентам. В частности сам Максвелл столкнулся с неразрешимой проблемой при раскрытии дела, в преступный мир были втянуты люди из полиции, что усложняло весь процесс, ведь могли быть многочисленные жертвы со стороны людей Максвелла...
Сэмпл: http://multi-up.com/909830
Качество видео: HDRip
Формат видео: AVI
Видео: XviD, 878 kb/s, 640x352, 23.976 fps
Аудио: MP3, 128 kb/s (2 ch), 48 KHz

MediaInfo

Общее
Полное имя : D:\Ambushed_2013.HDRip.avi
Формат : AVI
Формат/Информация : Audio Video Interleave
Размер файла : 703 Мбайт
Продолжительность : 1 ч. 36 м.
Общий поток : 1015 Кбит/сек
Программа кодирования : VirtualDubMod 1.5.10.3 | www.virtualdub-fr.org || (build 2550/release)
Библиотека кодирования : VirtualDubMod build 2550/release
Видео
Идентификатор : 0
Формат : MPEG-4 Visual
Профиль формата : Advanced Simple@L5
Параметр BVOP формата : 2
Параметр QPel формата : Нет
Параметр GMC формата : Без точки перехода
Параметр матрицы формата : Default (MPEG)
Идентификатор кодека : XVID
Идентификатор кодека/Подсказка : XviD
Продолжительность : 1 ч. 36 м.
Битрейт : 878 Кбит/сек
Ширина : 640 пикселей
Высота : 352 пикселя
Соотношение сторон : 16:9
Частота кадров : 23,976 кадра/сек
Цветовое пространство : YUV
Субдискретизация насыщенности : 4:2:0
Битовая глубина : 8 бит
Тип развёртки : Прогрессивная
Метод сжатия : С потерями
Бит/(Пиксели*Кадры) : 0.162
Размер потока : 608 Мбайт (86%)
Библиотека кодирования : XviD 1.2.1 (UTC 2008-12-04)
Аудио
Идентификатор : 1
Формат : MPEG Audio
Версия формата : Version 1
Профиль формата : Layer 3
Идентификатор кодека : 55
Идентификатор кодека/Подсказка : MP3
Продолжительность : 1 ч. 36 м.
Вид битрейта : Постоянный
Битрейт : 128 Кбит/сек
Каналы : 2 канала
Частота : 48,0 КГц
Метод сжатия : С потерями
Размер потока : 88,7 Мбайт (13%)
Выравнивание : Соединение по промежуткам
Продолжительность промежутка : 42 мс. (1,00 видеокадр)
Время предзагрузки промежутка : 504 мс.
Библиотека кодирования : LAME3.99r
Настройки программы : -m s -V 4 -q 2 -lowpass 17 -b 128

Скриншот c названием фильма

Скриншоты

Скачать

Скачать торрент!

Как скачивать? · Что такое торрент? · Рейтинг и ограничения

Сайт не распространяет и не хранит электронные версии произведений, а лишь предоставляет доступ к создаваемому пользователями каталогу ссылок на торрент-файлы, которые содержат только списки хеш-сумм

[Профиль] [ЛС]
Показать сообщения:    
Ответить на тему

Текущее время: Сегодня 14:14

Часовой пояс: GMT + 4



Вы не можете начинать темы
Вы не можете отвечать на сообщения
Вы не можете редактировать свои сообщения
Вы не можете удалять свои сообщения
Вы не можете голосовать в опросах
Вы не можете прикреплять файлы к сообщениям
Вы не можете скачивать файлы