ЗЛО 2 / V/H/S/2 (Саймон Баррет / Simon Barrett, Джейсон Айзенер / Jason Eisener) [2013, США, Канада, Индонезия, ужасы, триллер, BDRip] VO (den904) + Dub + Sub Rus + Original Eng

Ответить на тему
 
Автор Сообщение

user ®

Стаж: 7 лет 7 месяцев

Сообщений: 20008

Пост Пост: #1 от 04-Окт-2013 07:55

[Цитировать]

ЗЛО 2 / V/H/S/2
Страна: США, Канада, Индонезия / Bloody Disgusting
Жанр: ужасы, триллер
Год выпуска: 2013
Продолжительность: 01:35:42
Перевод: Одноголосый закадровый den904
Перевод 2: Профессиональный (дублированный) Цифровая Лицензия
Cубтитры: русские
Оригинальная аудиодорожка: английский
Режиссер: Саймон Баррет / Simon Barrett, Джейсон Айзенер/ Jason Eisener
В ролях: Келси Эбботт, Ханна Аль, Рашид Фахри, Албар Ока, Антара Девон, Мари Берт, Саманта Грейси, Коллинз Холт, Ханна Хьюз, Кевин Хант, Эпи Куснандар
Описание: В поисках пропавшего студента, пара частных детективов вламывается в его дом, где они находят коллекцию кассет VHS. Обнаружив ужасающие кадры на каждой из них, они понимают, что за исчезновением студента кроются страшные мотивы…
Сэмпл: http://sendfile.su/875813
Качество видео: BDRip Исходник V.H.S.2 2013 1080p Blu-ray Remux AVC DTS-HD MA 5.1 - KRaLiMaRKo
Формат видео: AVI
Видео: 688x384 (1.79:1), 25 fps, XviD build 50 ~1679 kbps avg, 0.25 bit/pixel
Аудио: 48 kHz, MPEG Layer 3, 2 ch, ~128.00 kbps avg [den904]
Аудио 2: 48 kHz, AC3 Dolby Digital, 2/0 (L,R) ch, ~192 kbps [Цифровая Лицензия ]
Аудио 3: 48 kHz, AC3 Dolby Digital, 2/0 (L,R) ch, ~192 kbps [ENG] Отдельно
Формат субтитров: softsub (SRT)
Доп. информация о субтитрах: [[Перевод В.Кардаш(подготовлен по просьбе ViKa_VolK)]

MediaInfo

Общее
Полное имя : C:\Users\Deadmauvlad\Desktop\V.H.S.2.2013.BDRip.Dub+Den904+[Original ENG] +Sub Rus [Кардаш В.]\V.H.S.2.2013.BDRip[Deadmauvlad].avi
Формат : AVI
Формат/Информация : Audio Video Interleave
Размер файла : 1,35 Гбайт
Продолжительность : 1 ч. 35 м.
Общий поток : 2014 Кбит/сек
Название фильма : V.H.S.2.2013.BDRip[Deadmauvlad]
Режиссёр : Deadmauvlad
Жанр : Horror
Программа кодирования : VirtualDubMod 1.5.10.3 | www.virtualdub-fr.org || (build 2550/release)
Формат оригинала/Имя : Film
Видео
Идентификатор : 0
Формат : MPEG-4 Visual
Профиль формата : Simple@L3
Параметр BVOP формата : Нет
Параметр QPel формата : Нет
Параметр GMC формата : Без точки перехода
Параметр матрицы формата : Default (H.263)
Идентификатор кодека : XVID
Идентификатор кодека/Подсказка : XviD
Продолжительность : 1 ч. 35 м.
Битрейт : 1680 Кбит/сек
Ширина : 688 пикселей
Высота : 384 пикселя
Соотношение сторон : 16:9
Частота кадров : 25,000 кадров/сек
Цветовое пространство : YUV
Субдискретизация насыщенности : 4:2:0
Битовая глубина : 8 бит
Тип развёртки : Прогрессивная
Метод сжатия : С потерями
Бит/(Пиксели*Кадры) : 0.254
Размер потока : 1,12 Гбайт (83%)
Библиотека кодирования : XviD 1.2.1 (UTC 2008-12-04)
Аудио #1
Идентификатор : 1
Формат : MPEG Audio
Версия формата : Version 1
Профиль формата : Layer 3
Режим : Joint stereo
Расширение режима : MS Stereo
Идентификатор кодека : 55
Идентификатор кодека/Подсказка : MP3
Продолжительность : 1 ч. 35 м.
Вид битрейта : Постоянный
Битрейт : 128 Кбит/сек
Каналы : 2 канала
Частота : 48,0 КГц
Метод сжатия : С потерями
Размер потока : 87,6 Мбайт (6%)
Выравнивание : Разделение по промежуткам
Продолжительность промежутка : 40 мс. (1,00 видеокадр)
Время предзагрузки промежутка : 500 мс.
Библиотека кодирования : LAME3.98
Аудио #2
Идентификатор : 2
Формат : AC-3
Формат/Информация : Audio Coding 3
Расширение режима : CM (complete main)
Параметр Endianness формата : Big
Идентификатор кодека : 2000
Продолжительность : 1 ч. 35 м.
Вид битрейта : Постоянный
Битрейт : 192 Кбит/сек
Каналы : 2 канала
Расположение каналов : Front: L R
Частота : 48,0 КГц
Битовая глубина : 16 бит
Метод сжатия : С потерями
Размер потока : 131 Мбайт (10%)
Выравнивание : Разделение по промежуткам
Продолжительность промежутка : 40 мс. (1,00 видеокадр)
Время предзагрузки промежутка : 500 мс.

Скриншот c названием фильма

Скриншоты



Скачать

Скачать торрент!

Как скачивать? · Что такое торрент? · Рейтинг и ограничения

Сайт не распространяет и не хранит электронные версии произведений, а лишь предоставляет доступ к создаваемому пользователями каталогу ссылок на торрент-файлы, которые содержат только списки хеш-сумм

[Профиль] [ЛС]
Показать сообщения:    
Ответить на тему

Текущее время: Сегодня 17:30

Часовой пояс: GMT + 4



Вы не можете начинать темы
Вы не можете отвечать на сообщения
Вы не можете редактировать свои сообщения
Вы не можете удалять свои сообщения
Вы не можете голосовать в опросах
Вы не можете прикреплять файлы к сообщениям
Вы не можете скачивать файлы