Удивительные приключения живого трупа / The Amazing Adventures Of The Living Corpse (Джастин Пол Риттер /Justin Paul Ritter) [2012, Мульфильм, трэш, по мотивам комикса, HDRip] Rus Sub

Ответить на тему
 
Автор Сообщение

user ®

Стаж: 13 лет

Сообщений: 15041

Пост Пост: #1 от 03-Окт-2013 14:30

[Цитировать]

Удивительные приключения живого трупа
The Amazing Adventures Of The Living Corpse

Страна: США
Жанр: Мультфильм, трэш, по мотивам комикса
Продолжительность: 01:23:11
Год выпуска: 2012
Перевод: субтитры
Русские субтитры: есть (Алексис)-Режиссёры: Джастин Пол Риттер /Justin Paul Ritter/
Роли озвучивали: Майкл Вар /Michael Villar/, Маршал Хилтон /Marshal Hilton/, Эмрис Райт /Emrys Wright/, Ли Перкинс /Lee Perkins/, Си-Джей Бейкер /C.J. Baker/, Мария Олсен /Maria Olsen/, Райан МакГиверн /Ryan McGivern/-Описание: Познакомьтесь с Джоном Ромеро, разлагающимся трупом, наделенным совестью и раскаянием, который в порыве первого голода инфицировал собственную жену и убил свою маленькую дочь. Но теперь упрямому пожирателю мозгов придется с боем прорываться через зловещих демонов ада, чтобы спасти своего уцелевшего сына от ужасов мира живых. Приготовьтесь к приключению, полному отрывания рук и хруста плоти, основанному на инди-комиксах Кена Хейзера и База Хэссона.-Релиз: -Качество: HDRip (s4a-the.amazing.adventures.of.the.living.corpse.2012.brrip.xvid.avi)
Формат: AVI
Видео: 640x352 (1.82:1), 23.976 fps, XviD build 50 ~971 kbps avg, 0.18 bit/pixel
Аудио: 48 kHz, MPEG Layer 3, 2 ch, ~128.00 kbps avg
Субтитры #1: русские | .srt (Алексис)
Субтитры #2: английские | .idx/.sub (BD)
Сэмпл: http://multi-up.com/909267 -- для оценки рипа и анимации

Подробные технические данные

GeneralComplete name : F:\Amazing Adventures Of The Living Corpse.aviFormat : AVIFormat/Info : Audio Video InterleaveFile size : 700 MiBDuration : 1h 27mnOverall bit rate : 1 113 KbpsWriting application : MEncoder SVN-r31918Writing library : MPlayer
VideoID : 0Format : MPEG-4 VisualFormat profile : Advanced Simple@L5Format settings, BVOP : 2Format settings, QPel : NoFormat settings, GMC : No warppointsFormat settings, Matrix : Default (H.263)Codec ID : XVIDCodec ID/Hint : XviDDuration : 1h 27mnBit rate : 972 KbpsWidth : 640 pixelsHeight : 352 pixelsDisplay aspect ratio : 16:9Original display aspect ratio : 16:9Frame rate : 23.976 fpsColor space : YUVChroma subsampling : 4:2:0Bit depth : 8 bitsScan type : ProgressiveCompression mode : LossyBits/(Pixel*Frame) : 0.180Stream size : 611 MiB (87%)Writing library : XviD 1.2.1 (UTC 2008-12-04)
AudioID : 1Format : MPEG AudioFormat version : Version 1Format profile : Layer 3Mode : Joint stereoMode extension : MS StereoCodec ID : 55Codec ID/Hint : MP3Duration : 1h 27mnBit rate mode : ConstantBit rate : 128 KbpsChannel(s) : 2 channelsSampling rate : 48.0 KHzCompression mode : LossyDelay relative to video : 42msStream size : 80.5 MiB (11%)Alignment : Aligned on interleavesInterleave, duration : 24 ms (0.58 video frame)Interleave, preload duration : 504 ms
Скачать

Скачать торрент! Удивительные приключения живого трупа / The Amazing Adventures Of The Living Corpse (Джастин Пол Риттер /Justin Paul Ritter) [2012, Мульфильм, трэш, по мотивам комикса, HDRip] Rus Sub

Как скачивать? · Что такое торрент? · Рейтинг и ограничения

Сайт не распространяет и не хранит электронные версии произведений, а лишь предоставляет доступ к создаваемому пользователями каталогу ссылок на торрент-файлы, которые содержат только списки хеш-сумм

[Профиль] [ЛС]
Показать сообщения:    
Ответить на тему

Текущее время: Сегодня 23:11

Часовой пояс: GMT + 4



Вы не можете начинать темы
Вы не можете отвечать на сообщения
Вы не можете редактировать свои сообщения
Вы не можете удалять свои сообщения
Вы не можете голосовать в опросах
Вы не можете прикреплять файлы к сообщениям
Вы не можете скачивать файлы