Подари мне немного тепла (Илья Максимов) [2013, Россия, Мелодрама, HDTV 1080i]

Ответить на тему
 
Автор Сообщение

user ®

Стаж: 7 лет 7 месяцев

Сообщений: 20008

Пост Пост: #1 от 03-Окт-2013 00:30

[Цитировать]

Подари мне немного тепла
Страна: Россия
Жанр: Мелодрама
Год выпуска: 2013
Продолжительность: 01:28:17
Перевод: Не требуется
Cубтитры: нет
Режиссер: Илья Максимов
В ролях: Светлана Иванова, Сергей Мухин, Илья Шакунов, Алена Спивак, Олеся Остапенко, Алина Бабак и другие.
Описание: Молодая работница хлебозавода мечтает родить ребенка, но боится повторить поступок своей матери, бросившей детей ради чужого мужчины. Встреча с любимым человеком дает ей возможность забыть о своем страхе и обрести надежду на счастье. Но гибель любимого разрушает ее планы. Кто и как вернет ей надежду?
Сэмпл: http://multi-up.com/908157
Доп. информация: Релиз -

Рип чистый. Без посторонних надписей. Выкладывается как есть.
Качество: HDTV 1080i
Контейнер: TS
Видео кодек: H.264
Аудио кодек: MP3
Видео: 1920x1080 (16:9) 25.000 fps 8 145 Kbps, 0.157 bit/pixel
Аудио: MPEG Audio 48000Hz stereo 192 Кбит/сек

MediaInfo

General
ID : 1 (0x1)
Complete name : D:\Выкладка\Подари мне немного тепла (2013, Мелодрама, HDTV 1080i) (MYDIMKA).ts
Format : MPEG-TS
File size : 5.20 GiB
Duration : 1h 28mn
Overall bit rate mode : Variable
Overall bit rate : 8 439 Kbps
Video
ID : 2911 (0xB5F)
Menu ID : 1 (0x1)
Format : AVC
Format/Info : Advanced Video Codec
Format profile : High@L4.0
Format settings, CABAC : Yes
Format settings, ReFrames : 3 frames
Codec ID : 27
Duration : 1h 28mn
Bit rate : 7 828 Kbps
Width : 1 920 pixels
Height : 1 080 pixels
Display aspect ratio : 16:9
Frame rate : 25.000 fps
Color space : YUV
Chroma subsampling : 4:2:0
Bit depth : 8 bits
Scan type : MBAFF
Bits/(Pixel*Frame) : 0.151
Stream size : 4.83 GiB (93%)
Audio
ID : 2912 (0xB60)
Menu ID : 1 (0x1)
Format : MPEG Audio
Format version : Version 1
Format profile : Layer 2
Mode : Joint stereo
Mode extension : Intensity Stereo + MS Stereo
Codec ID : 3
Duration : 1h 28mn
Bit rate mode : Constant
Bit rate : 192 Kbps
Channel count : 2 channels
Sampling rate : 48.0 KHz
Compression mode : Lossy
Stream size : 121 MiB (2%)
Language : Russian

Скриншоты


Скриншот с названием фильма

Скачать

Скачать торрент!

Как скачивать? · Что такое торрент? · Рейтинг и ограничения

Сайт не распространяет и не хранит электронные версии произведений, а лишь предоставляет доступ к создаваемому пользователями каталогу ссылок на торрент-файлы, которые содержат только списки хеш-сумм

[Профиль] [ЛС]
Показать сообщения:    
Ответить на тему

Текущее время: Сегодня 00:07

Часовой пояс: GMT + 4



Вы не можете начинать темы
Вы не можете отвечать на сообщения
Вы не можете редактировать свои сообщения
Вы не можете удалять свои сообщения
Вы не можете голосовать в опросах
Вы не можете прикреплять файлы к сообщениям
Вы не можете скачивать файлы