Прощай, Брюс Ли / Goodbye Bruce Lee: His Last Game of Death / Xin si wang you xi / (Пин Лин / Pin Lin, Харольд Б. Швартц / Harold B. Swartz) [1975, Тайвань, боевик, восточные единоборства, DVDRip] DVO (студия NLS)

Ответить на тему
 
Автор Сообщение

user ®

Стаж: 11 лет

Сообщений: 15151

Пост Пост: #1 от 02-Окт-2013 02:45

[Цитировать]

Прощай, Брюс Ли / Goodbye Bruce Lee: His Last Game of Death / Xin si wang you xi
Страна: Тайвань
Жанр: боевик, восточные единоборства
Год выпуска: 1975
Продолжительность: 1:19:20
Перевод: Профессиональный (двухголосый закадровый) студия NLS
Cубтитры: нет
Оригинальная аудиодорожка: нет
Режиссер: Пин Лин / Pin Lin, Харольд Б. Швартц / Harold B. Swartz
В ролях: Брюс Лай /Bruce Li/, Роберт Кервер /Robert Kerver/, Рональд Браун /Ronald Brown/, Джонни Флойд /Johnny Floyd/, Мунг Пинг /Mung Ping/, Фей Лунг /Fei Lung/, Мао Шан /Mao Shan/, Куслаи /Kuslai/, Сандус /Sandus/
Описание: Главный герой в этой двойной истории — мастер боевых искусств, которого берут дублером Брюса Ли в его последний неоконченный фильм. Ему показывают тот материал, в котором Брюс уже успел сняться до своей смерти. По сюжету фильма молодой человек невольно оказывается замешанным в денежной афере. Когда он отказывается отдать деньги мафии, плохие парни похищают его подругу и держат ее заложницей в Башне Смерти. Попав туда, он оказывается перед выбором. Наблюдать, как его подругу выбросят с вершины башни или побороться с различными мастерами боевых искусств на 7 уровнях башни, чтобы вернуть девушку.
Доп. информация:
IMDB
Производство: YU-YUN Production (Тайвань)
Sample
Качество видео: DVDRip (Видео с Goodbye.Bruce.Lee.1975.PL.DVDRip.XviD.avi)
Формат видео: AVI
Видео: Xvid 656x272 25.00fps 1098kbps
Аудио: MPEG Audio Layer 3 48000Hz stereo 128kbps

MediaInfo

General
Complete name : P:\GoodByeBruceLee\Proschaj.Brus.Li.1975.DVDrip.XviD.Rus_25KADR.avi
Format : AVI
Format/Info : Audio Video Interleave
File size : 701 MiB
Duration : 1h 19mn
Overall bit rate : 1 236 Kbps
Movie name : Proschaj, Brus Li
Original source form/Distributed : Goodbye.Bruce.Lee.1975.PL.DVDRip.XviD.avi
Genre : Kung Fu
Copyright : 25KADR
Comment : DVO
Video
ID : 0
Format : MPEG-4 Visual
Format profile : Advanced Simple@L5
Format settings, BVOP : Yes
Format settings, QPel : No
Format settings, GMC : No warppoints
Format settings, Matrix : Default (MPEG)
Muxing mode : Packed bitstream
Codec ID : XVID
Codec ID/Hint : XviD
Duration : 1h 19mn
Bit rate : 1 098 Kbps
Width : 656 pixels
Height : 272 pixels
Display aspect ratio : 2.40:1
Frame rate : 25.000 fps
Color space : YUV
Chroma subsampling : 4:2:0
Bit depth : 8 bits
Scan type : Progressive
Bits/(Pixel*Frame) : 0.246
Stream size : 623 MiB (89%)
Writing library : XviD 1.2.0.dev47 (UTC 2006-11-01)
Audio
ID : 1
Format : MPEG Audio
Format version : Version 1
Format profile : Layer 3
Mode : Joint stereo
Mode extension : MS Stereo
Codec ID : 55
Codec ID/Hint : MP3
Duration : 1h 19mn
Bit rate mode : Constant
Bit rate : 128 Kbps
Channel(s) : 2 channels
Sampling rate : 48.0 KHz
Stream size : 72.6 MiB (10%)
Alignment : Aligned on interleaves
Interleave, duration : 40 ms (1.00 video frame)
Interleave, preload duration : 504 ms
Language : Russian

Скриншоты



Скачать

Скачать торрент! Прощай, Брюс Ли / Goodbye Bruce Lee: His Last Game of Death / Xin si wang you xi / (Пин Лин / Pin Lin, Харольд Б. Швартц / Harold B. Swartz) [1975, Тайвань, боевик, восточные единоборства, DVDRip] DVO (студия NLS)

Как скачивать? · Что такое торрент? · Рейтинг и ограничения

Сайт не распространяет и не хранит электронные версии произведений, а лишь предоставляет доступ к создаваемому пользователями каталогу ссылок на торрент-файлы, которые содержат только списки хеш-сумм

[Профиль] [ЛС]
Показать сообщения:    
Ответить на тему

Текущее время: Сегодня 06:05

Часовой пояс: GMT + 4



Вы не можете начинать темы
Вы не можете отвечать на сообщения
Вы не можете редактировать свои сообщения
Вы не можете удалять свои сообщения
Вы не можете голосовать в опросах
Вы не можете прикреплять файлы к сообщениям
Вы не можете скачивать файлы