Мужчина: Инструкция по применению / Mens Manual (Ли Вон Сок / Lee Won seok) [2013, Южная Корея, комедия, HDTVRip] VO

Ответить на тему
 
Автор Сообщение

user ®

Стаж: 13 лет

Сообщений: 15071

Пост Пост: #1 от 01-Окт-2013 17:15

[Цитировать]

Мужчина: Инструкция по применению / Mens Manual
Страна: Южная Корея
Жанр: комедия
Год выпуска: 2013
Продолжительность: 01:54:33
Перевод: Одноголосый закадровый [mi24] по субтитрам:[Фансаб-группы: "Альянс"]
Cубтитры: нет
Оригинальная аудиодорожка: нет-Режиссер: Ли Вон Сок / Lee Won seok
В ролях: Ли Си Ён, О Чжон Се, Пак Ён Гю, Ким Чжон Тхэ, Ли Вон Чжон, Пэ Сон У, Ким Джун Сунг, Ким Мин Чжэ, Гён Су Чжин, Джин Кюнг Ким-Описание: Чхве Бо На, помощницу режиссера рекламных роликов, заваливают всевозможными заданиями. Поскольку работа занимает буквально все ее время, до внешности руки не доходят. Бо На сто лет не ходила на свидания. Однажды, прогуливаясь после завершения тяжелых съемок, Бо На наталкивается на необычный лоток, в котором продают инструктивные записи. Там ей в руки попадает набор кассет, обучающий как манипулировать мужчинами убедительными способами. Эти кассеты скоро изменят жизнь Бо На навсегда.-
Качество видео: HDTVRip
Формат видео: AVI
Видео: XviD, 720x304 (2,35:1), 23,976 fps, ~1589 kbps avg, 0.30 bit/pixel
Аудио: 48 kHz, AC3 Dolby Digital, 2/0 (L,R) ch, ~224 kbps

MediaInfo

Общее
Полное имя : E:\Mens.Manual_2013.avi
Формат : AVI
Формат/Информация : Audio Video Interleave
Размер файла : 1,46 Гбайт
Продолжительность : 1 ч. 54 м.
Общий поток : 1822 Кбит/сек
Программа кодирования : VirtualDubMod 1.5.10.2 (build 2540/release)
Библиотека кодирования : VirtualDubMod build 2540/release
Видео
Идентификатор : 0
Формат : MPEG-4 Visual
Профиль формата : Advanced Simple@L5
Параметр BVOP формата : 2
Параметр QPel формата : Нет
Параметр GMC формата : Без точки перехода
Параметр матрицы формата : Default (MPEG)
Идентификатор кодека : XVID
Идентификатор кодека/Подсказка : XviD
Продолжительность : 1 ч. 54 м.
Битрейт : 1589 Кбит/сек
Ширина : 720 пикселей
Высота : 304 пикселя
Соотношение сторон : 2,35:1
Частота кадров : 23,976 кадра/сек
Цветовое пространство : YUV
Субдискретизация насыщенности : 4:2:0
Битовая глубина : 8 бит
Тип развёртки : Прогрессивная
Метод сжатия : С потерями
Бит/(Пиксели*Кадры) : 0.303
Размер потока : 1,27 Гбайт (87%)
Библиотека кодирования : XviD 1.2.1 (UTC 2008-12-04)
Аудио
Идентификатор : 1
Формат : AC-3
Формат/Информация : Audio Coding 3
Расширение режима : CM (complete main)
Параметр Endianness формата : Big
Идентификатор кодека : 2000
Продолжительность : 1 ч. 54 м.
Вид битрейта : Постоянный
Битрейт : 224 Кбит/сек
Каналы : 2 канала
Расположение каналов : Front: L R
Частота : 48,0 КГц
Битовая глубина : 16 бит
Метод сжатия : С потерями
Размер потока : 184 Мбайт (12%)
Выравнивание : Разделение по промежуткам
Продолжительность промежутка : 42 мс. (1,00 видеокадр)
Время предзагрузки промежутка : 500 мс.

Скриншоты

Скачать

Скачать торрент! Мужчина: Инструкция по применению / Mens Manual (Ли Вон Сок / Lee Won seok) [2013, Южная Корея, комедия, HDTVRip] VO

Как скачивать? · Что такое торрент? · Рейтинг и ограничения

Сайт не распространяет и не хранит электронные версии произведений, а лишь предоставляет доступ к создаваемому пользователями каталогу ссылок на торрент-файлы, которые содержат только списки хеш-сумм

[Профиль] [ЛС]
Показать сообщения:    
Ответить на тему

Текущее время: Сегодня 16:35

Часовой пояс: GMT + 4



Вы не можете начинать темы
Вы не можете отвечать на сообщения
Вы не можете редактировать свои сообщения
Вы не можете удалять свои сообщения
Вы не можете голосовать в опросах
Вы не можете прикреплять файлы к сообщениям
Вы не можете скачивать файлы