Ночь страха 2 / Fright Night 2 (Эдуардо Родригез / Eduardo Rodriguez) [2013, США, ужасы, DVDRip] VO (Хихикающий доктор)

Ответить на тему
 
Автор Сообщение

user ®

Стаж: 7 лет 7 месяцев

Сообщений: 20008

Пост Пост: #1 от 29-Сен-2013 14:35

[Цитировать]

Ночь страха 2 / Fright Night 2
Страна: США
Жанр: ужасы
Год выпуска: 2013
Продолжительность: 01:39:00
Перевод: Одноголосый закадровый (Хихикающий доктор)
Cубтитры: нет
Оригинальная аудиодорожка: нет
Режиссер: Эдуардо Родригез / Eduardo Rodriguez
В ролях: Уилл Пэйн, Джейми Мюррэй, Шон Пауэр, Саша Паркинсон, Крис Уоллер, Джон-Кристиан Бейтман, Лиана Маргиняну, Алина Минзу, Ади Хостиук, Джоэль Коутинью
Описание: Старшеклассник Чарли вместе со своим приятелем, фанатом ужасов "злым" Эдом и бывшей подружкой Эми принял участие в программе обучения за рубежом и оказался в Румынии. Однако вскоре он узнает, что их обаятельная молодая учительница Джерри на самом деле - вампирша. К сожалению, Чарли никто не верит, а Эду все это кажется весьма забавным и только подпитывает его одержимость вампирами. Когда Джерри превращает в вампира самого Эда, Чарли вынужден искать помощи у знаменитого (благодаря телешоу) охотника на вампиров Питера Винсента, который как раз снимает в Румынии свою передачу "Ночь страха". Чарли просит Винсента научить его тому, как противостоять упырям, чтобы уберечь от Джерри свою бывшую девушку Эми, на которую вампирша точит клыки.
Доп. информация:
imdb http://www.imdb.com/title/tt2486630/
Кинорпоиск http://www.kinopoisk.ru/film/721919/
Трейлер http://www.youtube.com/watch?v=hK_A7RDIA-0
Сэмпл: http://multi-up.com/907815
Качество видео: DVDRip
Формат видео: AVI
Видео: XviD, 1063 Кбит/с, 720x400
Аудио: MP3, 2 ch, 192 Кбит/с

MediaInfo

E:\Fright.Night.2.2013 DVDRiP.avi
General
Complete name : E:\Fright.Night.2.2013 DVDRiP.avi
Format : AVI
Format/Info : Audio Video Interleave
File size : 758 MiB
Duration : 1h 39mn
Overall bit rate : 1 063 Kbps
Writing application : VirtualDubMod 1.5.10.3 (build 2550/release)
Writing library : VirtualDubMod build 2550/release
Video #0
ID : 0
Format : MPEG-4 Visual
Format profile : Advanced Simple@L5
Format settings, BVOP : 2
Format settings, QPel : No
Format settings, GMC : No warppoints
Format settings, Matrix : Default (H.263)
Codec ID : XVID
Codec ID/Hint : XviD
Duration : 1h 39mn
Bit rate : 862 Kbps
Width : 720 pixels
Height : 400 pixels
Display aspect ratio : 16:9
Frame rate : 23.976 fps
Color space : YUV
Chroma subsampling : 4:2:0
Bit depth : 8 bits
Scan type : Progressive
Compression mode : Lossy
Bits/(Pixel*Frame) : 0.125
Stream size : 614 MiB (81%)
Writing library : XviD 1.2.1 (UTC 2008-12-04)
Audio #1
ID : 1
Format : MPEG Audio
Format version : Version 1
Format profile : Layer 3
Codec ID : 55
Codec ID/Hint : MP3
Duration : 1h 39mn
Bit rate mode : Constant
Bit rate : 192 Kbps
Channel(s) : 2 channels
Sampling rate : 44.1 KHz
Compression mode : Lossy
Delay relative to video : 21ms
Stream size : 137 MiB (18%)
Alignment : Split accross interleaves
Interleave, duration : 42 ms (1.00 video frame)
Interleave, preload duration : 500 ms

Скриншот c названием

Скриншоты

Скачать

Скачать торрент!

Как скачивать? · Что такое торрент? · Рейтинг и ограничения

Сайт не распространяет и не хранит электронные версии произведений, а лишь предоставляет доступ к создаваемому пользователями каталогу ссылок на торрент-файлы, которые содержат только списки хеш-сумм

[Профиль] [ЛС]
Показать сообщения:    
Ответить на тему

Текущее время: Сегодня 00:00

Часовой пояс: GMT + 4



Вы не можете начинать темы
Вы не можете отвечать на сообщения
Вы не можете редактировать свои сообщения
Вы не можете удалять свои сообщения
Вы не можете голосовать в опросах
Вы не можете прикреплять файлы к сообщениям
Вы не можете скачивать файлы