Ночь страха 2 / Fright Night 2 (Эдуардо Родригез / Eduardo Rodriguez) [2013, США, ужасы, HDRip] VO (Xixidok) + Original Eng

Ответить на тему
 
Автор Сообщение

user ®

Стаж: 7 лет 7 месяцев

Сообщений: 20008

Пост Пост: #1 от 29-Сен-2013 14:35

[Цитировать]

Ночь страха 2 / Fright Night 2- -Страна: США
Жанр: ужасы
Год выпуска: 2013
Продолжительность: 01:39:41-Перевод: Одноголосый закадровый Xixidok
Cубтитры: нет
Оригинальная аудиодорожка: английский-Режиссер: Эдуардо Родригез / Eduardo Rodriguez-В ролях: Уилл Пэйн, Джейми Мюррэй, Шон Пауэр, Саша Паркинсон, Крис Уоллер, Джон-Кристиан Бейтман, Лиана Маргиняну, Алина Минзу, Ади Хостиук, Джоэль Коутинью-Описание: Молодые студенты колледжа внезапно узнают страшную правду о своем новом профессоре. Оказывается, их профессор — красивая молодая женщина Джерри Дэндридж — настоящая вампирша! Пытаясь донести это до остальных, ребята, сами того не желая, подписали себе смертный приговор. Потому что Джерри совершенно не хочет, чтобы ее тайна стала достоянием общественности…-Сэмпл: http://multi-up.com/907871-Качество видео: HDRip [Рип с BDRip 720p]
Формат видео: AVI
Видео: 720x400 (1.80:1), 23.976 fps, XviD build 73 ~1641 kbps avg, 0.24 bit/pixel
Аудио: 44.100 kHz, MPEG Layer 3, 2 ch, ~192.00 kbps avg
Аудио 2: 48 kHz, AC3 Dolby Digital, 2/0 (L,R) ch, ~256 kbps

MediaInfo

Полное имя : H:\Torrent2\Fright.Night.2.2013.L1.HDRip_[ СПАМ
Формат : AVI
Формат/Информация : Audio Video Interleave
Размер файла : 1,47 Гбайт
Продолжительность : 1 ч. 39 м.
Общий поток : 2104 Кбит/сек
Программа кодирования : VirtualDubMod 1.5.10.3 | www.virtualdub-fr.org || (build 2550/release)
Библиотека кодирования : VirtualDubMod build 2550/release
Видео
Идентификатор : 0
Формат : MPEG-4 Visual
Профиль формата : Advanced Simple@L5
Параметр BVOP формата : 1
Параметр QPel формата : Нет
Параметр GMC формата : Без точки перехода
Параметр матрицы формата : Выборочная
Идентификатор кодека : XVID
Идентификатор кодека/Подсказка : XviD
Продолжительность : 1 ч. 39 м.
Битрейт : 1642 Кбит/сек
Ширина : 720 пикселей
Высота : 400 пикселей
Соотношение сторон : 16:9
Частота кадров : 23,976 кадра/сек
Цветовое пространство : YUV
Субдискретизация насыщенности : 4:2:0
Битовая глубина : 8 бит
Тип развёртки : Прогрессивная
Метод сжатия : С потерями
Бит/(Пиксели*Кадры) : 0.238
Размер потока : 1,14 Гбайт (78%)
Библиотека кодирования : XviD 73
Аудио #1
Идентификатор : 1
Формат : MPEG Audio
Версия формата : Version 1
Профиль формата : Layer 3
Идентификатор кодека : 55
Идентификатор кодека/Подсказка : MP3
Продолжительность : 1 ч. 39 м.
Вид битрейта : Постоянный
Битрейт : 192 Кбит/сек
Каналы : 2 канала
Частота : 44,1 КГц
Метод сжатия : С потерями
Задержка видео : 26 мс.
Размер потока : 137 Мбайт (9%)
Выравнивание : Разделение по промежуткам
Продолжительность промежутка : 42 мс. (1,00 видеокадр)
Время предзагрузки промежутка : 500 мс.
Аудио #2
Идентификатор : 2
Формат : AC-3
Формат/Информация : Audio Coding 3
Расширение режима : CM (complete main)
Параметр Endianness формата : Big
Идентификатор кодека : 2000
Продолжительность : 1 ч. 39 м.
Вид битрейта : Постоянный
Битрейт : 256 Кбит/сек
Каналы : 2 канала
Расположение каналов : Front: L R
Частота : 48,0 КГц
Битовая глубина : 16 бит
Метод сжатия : С потерями
Размер потока : 183 Мбайт (12%)
Выравнивание : Разделение по промежуткам
Продолжительность промежутка : 42 мс. (1,00 видеокадр)
Время предзагрузки промежутка : 500 мс.

Скриншот c названием фильма

Скриншоты

Скачать

Скачать торрент!

Как скачивать? · Что такое торрент? · Рейтинг и ограничения

Сайт не распространяет и не хранит электронные версии произведений, а лишь предоставляет доступ к создаваемому пользователями каталогу ссылок на торрент-файлы, которые содержат только списки хеш-сумм

[Профиль] [ЛС]
Показать сообщения:    
Ответить на тему

Текущее время: Сегодня 13:42

Часовой пояс: GMT + 4



Вы не можете начинать темы
Вы не можете отвечать на сообщения
Вы не можете редактировать свои сообщения
Вы не можете удалять свои сообщения
Вы не можете голосовать в опросах
Вы не можете прикреплять файлы к сообщениям
Вы не можете скачивать файлы