Кровь искупления / Blood of Redemption (Джорджо Серафини / Giorgio Serafini, Шон Сургос / Shawn Sourgose) [2013, США, боевик, триллер, драма, криминал, HDRip] MVO

Ответить на тему
 
Автор Сообщение

user ®

Стаж: 7 лет 7 месяцев

Сообщений: 20008

Пост Пост: #1 от 29-Сен-2013 14:35

[Цитировать]

Кровь искупления / Blood of Redemption«Redemption can only be found through blood.» Страна: США
Жанр: боевик, триллер, драма, криминал
Год выпуска: 2013
Продолжительность: 01:25:10
Перевод: Любительский (многоголосый закадровый)
Cубтитры: нет
Оригинальная аудиодорожка: нет-Режиссер: Джорджо Серафини / Giorgio Serafini, Шон Сургос / Shawn Sourgose
В ролях: Дольф Лундгрен, Винни Джонс, Билли Зейн, Джанни Капальди, Роберт Дави, Роберт Миано, Масси Фурлан, ЛаДон Драммонд, Джелли Хоуи, Дженнифер Сайпс-Описание: Куинн Форте имел всё: власть, богатство, брата, боготворивший его, и женщину, которая очень любила его. Преданный кем-то из друзей, в одну ночь он теряет всё. Его отец — глава криминального клана убит, а брат считает, что это вина именно Куинна, который оказывается за решеткой. После освобождения из тюрьмы, герой объединяется со своим бывшим ставленником и близким другом и наносит врагам ответный удар.-
-Качество видео:HDRip
Формат видео: AVI
Видео: XviD, 720x400 (16:9), 23,976 fps, ~2005 kbps avg, 0.29 bit/pixel
Аудио: 48 kHz, AC3 Dolby Digital, 6 ch, ~448 kbps

MediaInfo

Общее
Полное имя : D:\AVI\1Blood of Redemption_2013.avi
Формат : AVI
Формат/Информация : Audio Video Interleave
Размер файла : 1,46 Гбайт
Продолжительность : 1 ч. 25 м.
Общий поток : 2463 Кбит/сек
Программа кодирования : VirtualDubMod 1.5.10.3 | www.virtualdub-fr.org || (build 2550/release)
Библиотека кодирования : VirtualDubMod build 2550/release
Видео
Идентификатор : 0
Формат : MPEG-4 Visual
Профиль формата : Advanced Simple@L5
Параметр BVOP формата : 1
Параметр QPel формата : Нет
Параметр GMC формата : Без точки перехода
Параметр матрицы формата : Default (MPEG)
Идентификатор кодека : XVID
Идентификатор кодека/Подсказка : XviD
Продолжительность : 1 ч. 25 м.
Битрейт : 2005 Кбит/сек
Ширина : 720 пикселей
Высота : 400 пикселей
Соотношение сторон : 16:9
Частота кадров : 23,976 кадра/сек
Цветовое пространство : YUV
Субдискретизация насыщенности : 4:2:0
Битовая глубина : 8 бит
Тип развёртки : Прогрессивная
Метод сжатия : С потерями
Бит/(Пиксели*Кадры) : 0.290
Размер потока : 1,19 Гбайт (81%)
Библиотека кодирования : XviD 64
Аудио
Идентификатор : 1
Формат : AC-3
Формат/Информация : Audio Coding 3
Расширение режима : CM (complete main)
Параметр Endianness формата : Big
Идентификатор кодека : 2000
Продолжительность : 1 ч. 25 м.
Вид битрейта : Постоянный
Битрейт : 448 Кбит/сек
Каналы : 6 каналов
Расположение каналов : Front: L C R, Side: L R, LFE
Частота : 48,0 КГц
Битовая глубина : 16 бит
Метод сжатия : С потерями
Размер потока : 273 Мбайт (18%)
Выравнивание : Разделение по промежуткам
Продолжительность промежутка : 42 мс. (1,00 видеокадр)
Время предзагрузки промежутка : 500 мс.

Скриншоты

Скачать

Скачать торрент!

Как скачивать? · Что такое торрент? · Рейтинг и ограничения

Сайт не распространяет и не хранит электронные версии произведений, а лишь предоставляет доступ к создаваемому пользователями каталогу ссылок на торрент-файлы, которые содержат только списки хеш-сумм

[Профиль] [ЛС]
Показать сообщения:    
Ответить на тему

Текущее время: Сегодня 03:54

Часовой пояс: GMT + 4



Вы не можете начинать темы
Вы не можете отвечать на сообщения
Вы не можете редактировать свои сообщения
Вы не можете удалять свои сообщения
Вы не можете голосовать в опросах
Вы не можете прикреплять файлы к сообщениям
Вы не можете скачивать файлы