Расплата неизбежна / Jaago (Менул Кумар / Mehul Kumar) [2004, Индия, Семейная драма, DVDRip] DVO

Ответить на тему
 
Автор Сообщение

user ®

Стаж: 12 лет

Сообщений: 15125

Пост Пост: #1 от 29-Сен-2013 11:25

[Цитировать]

Расплата неизбежна / Jaago
-Страна: Индия
Жанр: Драма, мелодрама
Год выпуска: 2004
Продолжительность: 02:02:25-Язык: Хинди
Перевод: Профессиональный (двухголосый, закадровый)
Cубтитры: Нет-Режиссер: Менул Кумар / Mehul Kumar-В ролях: Равина Тандон, Санджай Капур, Манодж Баджпай, Хансика Мотвани-Описание: Трое подонков изнасиловали в вагоне пригородной электрички девятилетнюю Шрути. Шрикант и Шанта — родители девочки обращаются за помощью в полицию. Инспектор полиции Крипа берётся расследовать дело, но найти свидетелей преступления очень трудно. Тогда Шанта, переодевшись женщиной лёгкого поведения, садится в электричку в надежде выйти на след преступников-- | Кинопоиск--Качество видео: DVDRip
Исходник: DVD5 R1
Формат видео: AVI-Видео: XviD, 720x320, 23.976 fps, 1568 Kbps
Аудио: MP3, 44.1 kHz, 2.0 stereo, 128 Kbps--Риппер, синхронизация звука: soso4eg-- -
-
-

Скриншоты


-

MI

Общее
Полное имя : C:\INDIYA\Rasplata.Neisbezhna.2004.DVDRip.XviD-soso4eg.avi
Формат : AVI
Формат/Информация : Audio Video Interleave
Размер файла : 1,46 Гбайт
Продолжительность : 2 ч. 2 м.
Общий поток : 1705 Кбит/сек
Название фильма : Rasplata.Neisbezhna.2004.DVDRip.XviD-soso4eg
Программа кодирования : VirtualDubMod 1.5.10.3 | www.virtualdub-fr.org || (build 2550/release)
Видео
Идентификатор : 0
Формат : MPEG-4 Visual
Профиль формата : Advanced Simple@L5
Параметр BVOP формата : 2
Параметр QPel формата : Нет
Параметр GMC формата : Без точки перехода
Параметр матрицы формата : Default (MPEG)
Идентификатор кодека : XVID
Идентификатор кодека/Подсказка : XviD
Продолжительность : 2 ч. 2 м.
Битрейт : 1568 Кбит/сек
Ширина : 720 пикселей
Высота : 320 пикселей
Соотношение сторон : 2,25:1
Частота кадров : 23,976 кадра/сек
Цветовое пространство : YUV
Субдискретизация насыщенности : 4:2:0
Битовая глубина : 8 бит
Тип развёртки : Прогрессивная
Метод сжатия : С потерями
Бит/(Пиксели*Кадры) : 0.284
Размер потока : 1,34 Гбайт (92%)
Библиотека кодирования : XviD 1.2.1 (UTC 2008-12-04)
Аудио
Идентификатор : 1
Формат : MPEG Audio
Версия формата : Version 1
Профиль формата : Layer 3
Режим : Joint stereo
Расширение режима : MS Stereo
Идентификатор кодека : 55
Идентификатор кодека/Подсказка : MP3
Продолжительность : 2 ч. 2 м.
Вид битрейта : Постоянный
Битрейт : 128 Кбит/сек
Каналы : 2 канала
Частота : 44,1 КГц
Метод сжатия : С потерями
Размер потока : 112 Мбайт (8%)
Выравнивание : Разделение по промежуткам
Продолжительность промежутка : 42 мс. (1,00 видеокадр)
Время предзагрузки промежутка : 500 мс.
-
Скачать

Скачать торрент! Расплата неизбежна / Jaago (Менул Кумар / Mehul Kumar) [2004, Индия, Семейная драма, DVDRip] DVO

Как скачивать? · Что такое торрент? · Рейтинг и ограничения

Сайт не распространяет и не хранит электронные версии произведений, а лишь предоставляет доступ к создаваемому пользователями каталогу ссылок на торрент-файлы, которые содержат только списки хеш-сумм

[Профиль] [ЛС]
Показать сообщения:    
Ответить на тему

Текущее время: Сегодня 00:28

Часовой пояс: GMT + 4



Вы не можете начинать темы
Вы не можете отвечать на сообщения
Вы не можете редактировать свои сообщения
Вы не можете удалять свои сообщения
Вы не можете голосовать в опросах
Вы не можете прикреплять файлы к сообщениям
Вы не можете скачивать файлы