Войны орков / Orc Wars (Кол Гласс / Kohl Glass) [2013, США, боевик, HDRip] DVO (НТВ+)

Ответить на тему
 
Автор Сообщение

user ®

Стаж: 7 лет 7 месяцев

Сообщений: 20008

Пост Пост: #1 от 28-Сен-2013 13:40

[Цитировать]

Войны орков / Orc Wars
Страна: США
Жанр: боевик
Год выпуска: 2013
Продолжительность: 01:37:21
Перевод: Профессиональный (двухголосый закадровый) [НТВ+]
Cубтитры: нет
Оригинальная аудиодорожка: нет-Режиссер: Кол Гласс / Kohl Glass
В ролях: Расти Джойнер, Масьела Луша, Уэсли Джон, Айзек С. Синглтон мл., Маклейн Нельсон, Адам Джонсон, Клэр Нидерпрюэм, Джейк Ван Вагонер, Роки Майерс, Марк Броксмит-Описание: Спасаясь от армии орков, принцесса Алея открывает магический портал и попадает в наш мир. Однако и здесь кровожадные дикари продолжают её преследовать. К счастью, девушка находит себе защитника в лице бывшего морпеха Джона, который с помощью незнакомого оркам огнестрельного оружия, легко даёт отпор преследователям. Однако, когда те призывают к себе на помощь настоящего дракона, Джон понимает, что без помощи друзей и тяжелой техники здесь не обойтись...- -Качество видео: HDRip
Формат видео: AVI
Видео: XviD, 720x400 (16:9), 23,976 fps, ~1807 kbps avg, 0.26 bit/pixel
Аудио: 48 kHz, AC3 Dolby Digital, 2 ch, 192 kbps

MediaInfo

Общее
Полное имя : E:\Войны орков_2013.avi
Формат : AVI
Формат/Информация : Audio Video Interleave
Размер файла : 1,37 Гбайт
Продолжительность : 1 ч. 37 м.
Общий поток : 2008 Кбит/сек
Программа кодирования : VirtualDubMod 1.5.10.2 (build 2540/release)
Библиотека кодирования : VirtualDubMod build 2540/release
Видео
Идентификатор : 0
Формат : MPEG-4 Visual
Профиль формата : Advanced Simple@L5
Параметр BVOP формата : 2
Параметр QPel формата : Нет
Параметр GMC формата : Без точки перехода
Параметр матрицы формата : Default (MPEG)
Идентификатор кодека : XVID
Идентификатор кодека/Подсказка : XviD
Продолжительность : 1 ч. 37 м.
Битрейт : 1807 Кбит/сек
Ширина : 720 пикселей
Высота : 400 пикселей
Соотношение сторон : 16:9
Частота кадров : 23,976 кадра/сек
Цветовое пространство : YUV
Субдискретизация насыщенности : 4:2:0
Битовая глубина : 8 бит
Тип развёртки : Прогрессивная
Метод сжатия : С потерями
Бит/(Пиксели*Кадры) : 0.262
Размер потока : 1,23 Гбайт (90%)
Библиотека кодирования : XviD 1.2.1 (UTC 2008-12-04)
Аудио
Идентификатор : 1
Формат : AC-3
Формат/Информация : Audio Coding 3
Расширение режима : CM (complete main)
Параметр Endianness формата : Big
Идентификатор кодека : 2000
Продолжительность : 1 ч. 37 м.
Вид битрейта : Постоянный
Битрейт : 192 Кбит/сек
Каналы : 2 канала
Расположение каналов : Front: L R
Частота : 48,0 КГц
Битовая глубина : 16 бит
Метод сжатия : С потерями
Размер потока : 134 Мбайт (10%)
Выравнивание : Разделение по промежуткам
Продолжительность промежутка : 42 мс. (1,00 видеокадр)
Время предзагрузки промежутка : 500 мс.

Скриншоты


Скачать

Скачать торрент!

Как скачивать? · Что такое торрент? · Рейтинг и ограничения

Сайт не распространяет и не хранит электронные версии произведений, а лишь предоставляет доступ к создаваемому пользователями каталогу ссылок на торрент-файлы, которые содержат только списки хеш-сумм

[Профиль] [ЛС]

Valdemar-olvi

Пол:

Стаж: 4 года

Сообщений: 9

Откуда: Украина

Пост Пост: #2 от 03-Окт-2013 15:25 (спустя 5 дней)

[Цитировать]

Спасибо, посмотрим!!!
[Профиль] [ЛС]
Показать сообщения:    
Ответить на тему

Текущее время: Сегодня 05:07

Часовой пояс: GMT + 4



Вы не можете начинать темы
Вы не можете отвечать на сообщения
Вы не можете редактировать свои сообщения
Вы не можете удалять свои сообщения
Вы не можете голосовать в опросах
Вы не можете прикреплять файлы к сообщениям
Вы не можете скачивать файлы