Штурм Белого дома / White House Down (Роланд Эммерих / Roland Emmerich) [2013, США, боевик, триллер, WEB-DLRip] Dub (звук с TS)

Ответить на тему
 
Автор Сообщение

user ®

Стаж: 7 лет 7 месяцев

Сообщений: 20008

Пост Пост: #1 от 27-Сен-2013 23:35

[Цитировать]

Штурм Белого дома / White House Down Страна: США
Жанр: боевик, триллер
Год выпуска: 2013
Продолжительность: 02:08:19-Перевод: Профессиональный (дублированный) [звук с TS]
Cубтитры: вшитые китайские субтитры
Режиссер: Роланд Эммерих / Roland Emmerich-В ролях: Ченнинг Татум, Джейми Фокс, Мэгги Джилленхол, Джейсон Кларк, Ричард Дженкинс, Джеймс Вудс, Джои Кинг, Николас Райт, Джимми Симпсон, Майкл Мерфи
Описание: Молодой сотрудник госбезопасности получает новое назначение в структуру охраны «Белого дома». Гордясь своей новой позицией, он приводит свою дочь на экскурсию на место своей будущей службы. И именно в этот день «Белый дом» атакуют некие неопознанные вооружённые силы. Офицер проявляет чудеса находчивости и отваги, пытаясь спасти жизнь своему ребёнку, себе и президенту США.-Доп. информация: -Качество видео: WEB-DLRip
Формат видео: AVI
Видео: XviD, 720x400, 60 fps, 1 419 Kbps
Аудио: MP3, 48.0 KHz, 2 ch, 192 Kbps

MediaInfo

General
Complete name : White.House.Down.2013.Dt.WEBRip.1400Mb. СПАМ
Format : AVI
Format/Info : Audio Video Interleave
File size : 1.46 GiB
Duration : 2h 8mn
Overall bit rate : 1 631 Kbps
Movie name : White.House.Down.2013.Dt.WEBRip.1400Mb. СПАМ
Director : СПАМ
Writing application : VirtualDubMod 1.5.10.2 (build 2540/release)
Original source form/Name : Movie
Copyright : http://www. СПАМ
Video #0
ID : 0
Format : MPEG-4 Visual
Format profile : Advanced Simple@L5
Format settings, BVOP : 2
Format settings, QPel : No
Format settings, GMC : No warppoints
Format settings, Matrix : Default (H.263)
Muxing mode : Packed bitstream
Codec ID : XVID
Codec ID/Hint : XviD
Duration : 2h 8mn
Bit rate : 1 419 Kbps
Width : 720 pixels
Height : 400 pixels
Display aspect ratio : 16:9
Frame rate : 60.000 fps
Color space : YUV
Chroma subsampling : 4:2:0
Bit depth : 8 bits
Scan type : Progressive
Compression mode : Lossy
Bits/(Pixel*Frame) : 0.082
Stream size : 1.27 GiB (87%)
Writing library : XviD 64
Audio #1
ID : 1
Format : MPEG Audio
Format version : Version 1
Format profile : Layer 3
Mode : Joint stereo
Codec ID : 55
Codec ID/Hint : MP3
Duration : 2h 8mn
Bit rate mode : Constant
Bit rate : 192 Kbps
Channel(s) : 2 channels
Sampling rate : 48.0 KHz
Compression mode : Lossy
Stream size : 176 MiB (12%)
Alignment : Aligned on interleaves
Interleave, duration : 24 ms (1.44 video frame)
Interleave, preload duration : 504 ms

Скриншот c названием фильма

Скриншоты

Скачать

Скачать торрент!

Как скачивать? · Что такое торрент? · Рейтинг и ограничения

Сайт не распространяет и не хранит электронные версии произведений, а лишь предоставляет доступ к создаваемому пользователями каталогу ссылок на торрент-файлы, которые содержат только списки хеш-сумм

[Профиль] [ЛС]
Показать сообщения:    
Ответить на тему

Текущее время: Сегодня 18:41

Часовой пояс: GMT + 4



Вы не можете начинать темы
Вы не можете отвечать на сообщения
Вы не можете редактировать свои сообщения
Вы не можете удалять свои сообщения
Вы не можете голосовать в опросах
Вы не можете прикреплять файлы к сообщениям
Вы не можете скачивать файлы