Разбойник / Lootera (Викрамадитья Мотване / Vikramaditya Motwane) [2013, Индия, драма, DVDRip] Sub Rus

Ответить на тему
 
Автор Сообщение

user ®

Стаж: 12 лет

Сообщений: 15124

Пост Пост: #1 от 27-Сен-2013 20:25

[Цитировать]

Разбойник / Lootera
Страна: Индия
Жанр: драма
Год выпуска: 2013
Продолжительность: 02:20:31
Перевод: Субтитры
Cубтитры: русские
Оригинальная аудиодорожка: хинди
Перевод субтитров: witaa
Режиссер: Викрамадитья Мотване / Vikramaditya Motwane
В ролях: Ранвир Сингх, Сонакши Синха, Барун Чанда, Дивья Датта
Описание: 1953 год. Западная Бенгалия. Правительство новой Индии готовит реформу феодальных земельно-собственнических отношений, в результате которой землевладельцы-заминдары лишаются своих источников доходов. К владельцу деревни Маникпур (Барун Чанда) приезжает молодой архитектор Варун Шривастав (Ранвир Сингх), он хочет провести раскопки возле семейного храма Чоудри. Прогрессивный заминдар дает согласие, а единственная дочь заминдара Ракхи (Сонакши Синха) проявляет к юноше интерес, выходящий за рамки обычной заботы о госте. Однако Варун – темная лошадка, его приездом в Маникпур руководили скрытые мотивы, и когда они проявляются, история приобретает мрачный оттенок.
Сэмпл: http://multi-up.com/907287
Дополнительно: Настоятельно прошу не выкладывать субтитры на других ресурсах
Коммерческое использование субтитров не предусматривается
Качество видео: DVDRip
Формат видео: AVI
Видео: XviD, 720х304, 2.35:1, 23.976 fps, 1 297 Kbps
Аудио: AC-3, 48.0 kHz, 224 Kbps, 6 channels, Original
Формат субтитров: hardsub (неотключаемые)

MediaInfo

General
Complete name : I: Lootera (2013)
Format : AVI
Format/Info : Audio Video Interleave
File size : 1.50 GiB
Duration : 2h 20mn
Overall bit rate : 1 530 Kbps
Writing application : VirtualDubMod 1.5.10.2 (build 2542/release)
Writing library : VirtualDubMod build 2542/release
Video #0
ID : 0
Format : MPEG-4 Visual
Format profile : Advanced Simple@L5
Format settings, BVOP : 2
Format settings, QPel : No
Format settings, GMC : No warppoints
Format settings, Matrix : Default (H.263)
Muxing mode : Packed bitstream
Codec ID : XVID
Codec ID/Hint : XviD
Duration : 2h 20mn
Bit rate : 1 297 Kbps
Width : 720 pixels
Height : 304 pixels
Display aspect ratio : 2.35:1
Frame rate : 23.976 fps
Color space : YUV
Chroma subsampling : 4:2:0
Bit depth : 8 bits
Scan type : Progressive
Compression mode : Lossy
Bits/(Pixel*Frame) : 0.247
Stream size : 1.27 GiB (85%)
Writing library : XviD 1.2.1 (UTC 2008-12-04)
Audio #1
ID : 1
Format : AC-3
Format/Info : Audio Coding 3
Mode extension : CM (complete main)
Codec ID : 2000
Duration : 2h 20mn
Bit rate mode : Constant
Bit rate : 224 Kbps
Channel(s) : 6 channels
Channel positions : Front: L C R, Side: L R, LFE
Sampling rate : 48.0 KHz
Bit depth : 16 bits
Compression mode : Lossy
Stream size : 225 MiB (15%)
Alignment : Split accross interleaves
Interleave, duration : 42 ms (1.00 video frame)
Interleave, preload duration : 500 ms

Скриншот c названием фильма

Скриншоты






Скачать

Скачать торрент! Разбойник / Lootera (Викрамадитья Мотване / Vikramaditya Motwane) [2013, Индия, драма, DVDRip] Sub Rus

Как скачивать? · Что такое торрент? · Рейтинг и ограничения

Сайт не распространяет и не хранит электронные версии произведений, а лишь предоставляет доступ к создаваемому пользователями каталогу ссылок на торрент-файлы, которые содержат только списки хеш-сумм

[Профиль] [ЛС]
Показать сообщения:    
Ответить на тему

Текущее время: Сегодня 13:46

Часовой пояс: GMT + 4



Вы не можете начинать темы
Вы не можете отвечать на сообщения
Вы не можете редактировать свои сообщения
Вы не можете удалять свои сообщения
Вы не можете голосовать в опросах
Вы не можете прикреплять файлы к сообщениям
Вы не можете скачивать файлы