Восторг Палуза / Rapture-Palooza (Пол Миддледитч / Paul Middleditch) [2013, США, фэнтези, комедия, WEB-DL 720p] VO + Original (Eng) + Sub (eng)

Ответить на тему
 
Автор Сообщение

user ®

Стаж: 7 лет 7 месяцев

Сообщений: 20008

Пост Пост: #1 от 27-Сен-2013 17:15

[Цитировать]

Восторг Палуза
Rapture-Palooza
Страна: США
Год выпуска: 2013
Жанр: фэнтези, комедия
Продолжительность: 01:24:53
Перевод: Одноголосый закадровый [den904]
русские субтитры: нет-Режиссёр: Пол Миддледитч : Paul Middleditch
В главных ролях: Анна Кендрик, Кен Жонг, Роб Кордри, Джон Фрэнсис Дейли, Крэйг Робинсон, Томас Леннон, Тайлер Лабайн, Роб Хюбел, Пол Шеер, Кэлам Уорси, Ана Гастейер, Джесси Камачо-Описание: Это веселая история рассказывает о последствиях религиозного апокалипсиса.- -Качество: WEB-DL 720p
Формат: MKV
Видео кодек: AVC
Аудио кодек: АС3
Видео: 1280x540, 23.976 fps, ~3 914 kbps avg, 0.236 bit/pixel
Аудио #1: [RUS] 48.0 kHz, AC3 Dolby Digital, 2 ch, ~192 kbps
Аудио #2: [ENG] 48 kHz, AC3 Dolby Digital, 3/2 (L,C,R,l,r) + LFE ch, ~384 kbps
субтитры: английские
навигация по главам: 10 глав

скриншоты

MediaInfo

Общее
Уникальный идентификатор : 246024264924078720070693198286594987089 (0xB9168CC55977CBE0AF3B75EB94BF5451)
Полное имя : D:\Im\Восторг Палуза\Rapture-Palooza.2013.WEB-DL 720p.mkv
Формат : Matroska
Версия формата : Version 4 / Version 2
Размер файла : 2,72 Гбайт
Продолжительность : 1 ч. 24 м.
Общий поток : 4581 Кбит/сек
Дата кодирования : UTC 2013-09-26 22:42:17
Программа кодирования : mkvmerge v6.4.1 ('Omega Point') built on Sep 16 2013 22:05:10
Библиотека кодирования : libebml v1.3.0 + libmatroska v1.4.1
Видео
Идентификатор : 1
Формат : AVC
Формат/Информация : Advanced Video Codec
Профиль формата : Main@L3.1
Параметр CABAC формата : Нет
Параметр ReFrames формата : 2 кадра
Идентификатор кодека : V_MPEG4/ISO/AVC
Продолжительность : 1 ч. 24 м.
Битрейт : 3914 Кбит/сек
Ширина : 1280 пикселей
Высота : 540 пикселей
Соотношение сторон : 2,35:1
Частота кадров : 23,976 кадра/сек
Цветовое пространство : YUV
Субдискретизация насыщенности : 4:2:0
Битовая глубина : 8 бит
Тип развёртки : Прогрессивная
Бит/(Пиксели*Кадры) : 0.236
Размер потока : 2,32 Гбайт (85%)
Язык : English
Default : Да
Forced : Нет
Основные цвета : BT.709-5, BT.1361, IEC 61966-2-4, SMPTE RP177
Характеристики трансфера : BT.709-5, BT.1361
Коэффициенты матрицы : BT.709-5, BT.1361, IEC 61966-2-4 709, SMPTE RP177
Аудио #1
Идентификатор : 2
Формат : AC-3
Формат/Информация : Audio Coding 3
Расширение режима : CM (complete main)
Идентификатор кодека : A_AC3
Продолжительность : 1 ч. 24 м.
Вид битрейта : Постоянный
Битрейт : 192 Кбит/сек
Каналы : 2 канала
Расположение каналов : Front: L R
Частота : 48,0 КГц
Битовая глубина : 16 бит
Метод сжатия : С потерями
Размер потока : 117 Мбайт (4%)
Заголовок : VO [den904]
Язык : Russian
Default : Да
Forced : Нет
Аудио #2
Идентификатор : 3
Формат : AC-3
Формат/Информация : Audio Coding 3
Расширение режима : CM (complete main)
Идентификатор кодека : A_AC3
Продолжительность : 1 ч. 24 м.
Вид битрейта : Постоянный
Битрейт : 384 Кбит/сек
Каналы : 6 каналов
Расположение каналов : Front: L C R, Side: L R, LFE
Частота : 48,0 КГц
Битовая глубина : 16 бит
Метод сжатия : С потерями
Размер потока : 233 Мбайт (8%)
Заголовок : ENG
Язык : English
Default : Нет
Forced : Нет
Текст
Идентификатор : 4
Формат : UTF-8
Идентификатор кодека : S_TEXT/UTF8
Идентификатор кодека/Информация : UTF-8 Plain Text
Заголовок : Eng Sub
Язык : English
Default : Нет
Forced : Нет
Меню
00:00:00.000 : en:Chapter 1
00:04:46.000 : en:Chapter 2
00:14:30.000 : en:Chapter 3
00:22:59.000 : en:Chapter 4
00:31:00.000 : en:Chapter 5
00:41:06.000 : en:Chapter 6
00:50:03.000 : en:Chapter 7
01:01:13.000 : en:Chapter 8
01:12:55.000 : en:Chapter 9
01:18:51.000 : en:Chapter 10
Внимание!!! Присутствует ненормативная лексика!
Скачать

Скачать торрент!

Как скачивать? · Что такое торрент? · Рейтинг и ограничения

Сайт не распространяет и не хранит электронные версии произведений, а лишь предоставляет доступ к создаваемому пользователями каталогу ссылок на торрент-файлы, которые содержат только списки хеш-сумм

[Профиль] [ЛС]
Показать сообщения:    
Ответить на тему

Текущее время: Сегодня 20:38

Часовой пояс: GMT + 4



Вы не можете начинать темы
Вы не можете отвечать на сообщения
Вы не можете редактировать свои сообщения
Вы не можете удалять свои сообщения
Вы не можете голосовать в опросах
Вы не можете прикреплять файлы к сообщениям
Вы не можете скачивать файлы