127 Часов / 127 Hours (Дэнни Бойл / Danny Boyle) [2010, США / Великобритания, триллер, драма, приключения, биография, BDRemux 1080p] DUB + DVO (OzzTV) + AVO (Сербин) + DVO (Кубик в кубе) + Sub rus, eng + original eng

Ответить на тему
 
Автор Сообщение

user ®

Стаж: 7 лет 7 месяцев

Сообщений: 20008

Пост Пост: #1 от 27-Сен-2013 14:05

[Цитировать]

127 Часов / 127 Hours Страна: США / Великобритания
Студия: Cloud Eight Films
Жанр: триллер, драма, приключения, биография
Год выпуска: 2010
Продолжительность: 01:33:41
Перевод 1: Профессиональный (дублированный) R5
Перевод 2: Профессиональный(двухголосый) OzzTV
Перевод 3: Одноголосый (закадровый) Ю.Сербин
Перевод 4: Профессиональный(двухголосый) Кубик в кубе
Cубтитры: русские R5,русские (forced,full.SDH,full.Voronine),английские
Оригинальная аудиодорожка: английский
Режиссер: Дэнни Бойл / Danny Boyle
В ролях: Джеймс Франко, Кейт Мара, Эмбер Тэмблин, Шон Ботт, Колман Стингер, Трит Уильямс, Джон Лоуренс, Кейт Бёртон, Бэйли Мишель Джонсон, Ребекка С. Олсон
Описание: Неудержимый скалолаз и любитель спрятанных в каньонах пещер в очередной раз в одиночестве едет в горы и оказывается в смертельной ловушке. 127 часов без еды, без питья и практически без надежды выжить. Тут-то и проявляется сила характера…
Источник: 127 Hours 2010 1080p Blu-ray AVC DTS-HD MA 5.1-CHDBits
Тип релиза: BDRemux 1080p
Контейнер: MKV
Видео: AVC,1920x1080,29.5 Mbps,23.976 fps,0.594 bits
Аудио 1: Russian: 48 kHz, DTS, 3/2 (L,C,R,l,r) + LFE ch, ~768.00 kbps avg |Дубляж, R5|
Аудио 2: Russian: 48 kHz, DTS, 3/2 (L,C,R,l,r) + LFE ch, ~1536.00 kbps avg|OzzTV|
Аудио 3: Russian: 48 kHz, DTS-HD MA, 3/2 (L,C,R,l,r) + LFE ch, ~3691.00 kbps avg(DTS Core: 5.1 / 48 kHz / 1509 kbps / 24-bit) |Одноголосый закадровый, Ю.Сербин|
Аудио 4: Russian: 48 kHz, DTS-HD MA, 3/2 (L,C,R,l,r) + LFE ch, ~3696.00 kbps avg (DTS Core: 5.1 / 48 kHz / 1509 kbps / 24-bit)|Двухголосый закадровый, cтудия "Кубик в кубе"|
Аудио 5: English: 48 kHz, DTS-HD MA, 3/2 (L,C,R,l,r) + LFE ch, ~3674.00 kbps avg(DTS Core: 5.1 / 48 kHz / 1509 kbps / 24-bit)|Оригинал|
Аудио6 : English: 48 kHz, AC3, 2/0 (L,R) ch, ~224.00 kbps avg |Commentary|

Доп.информация

-Дорожка №2 получена наложением чистого голоса на центр декодированного DTS-HD MA.
За что огромное спасибо AndrewPlacid
-Дорожка №3 получена наложением чистого голоса на центр декодированного DTS-HD MA.
Выражаю огромную благодарность Voronine за предоставленную дорогу и Kisluk за сборку дороги.
-Дорожка №4 получена наложением чистого голоса на центр декодированного DTS-HD MA.
Огромное спасибо за чистый голос лорди74,за предоставленный материал Ko_Ant4

MediaInfo

General
Unique ID : 210980359978525937958350523175330039347 (0x9EB956DC1AAF5EC18ACCD96A03EEC633)
Complete name : D:\Downloads\Видео\Обложка\127 Hours (2010) 1080p BD-Remux.mkv
Format : Matroska
File size : 24.5 GiB
Duration : 1h 33mn
Overall bit rate : 37.4 Mbps
Movie name : -Talian-
Encoded date : UTC 2011-04-09 15:56:21
Writing application : mkvmerge v3.3.0 ('Language') сборка от May 14 2010 17:11:50
Writing library : libebml v0.8.0 + libmatroska v0.9.0
Video
ID : 1
Format : AVC
Format/Info : Advanced Video Codec
Format profile : High@L4.1
Format settings, CABAC : Yes
Format settings, ReFrames : 2 frames
Format settings, GOP : M=1, N=4
Codec ID : V_MPEG4/ISO/AVC
Duration : 1h 33mn
Bit rate mode : Variable
Bit rate : 29.5 Mbps
Width : 1 920 pixels
Height : 1 080 pixels
Display aspect ratio : 16:9
Frame rate : 23.976 fps
Color space : YUV
Chroma subsampling : 4:2:0
Bit depth : 8 bits
Scan type : Progressive
Bits/(Pixel*Frame) : 0.594
Stream size : 19.3 GiB (79%)
Title : 127 Hours (2010) 1080p BD-Remux
Language : English
Audio #1
ID : 2
Format : DTS
Format/Info : Digital Theater Systems
Codec ID : A_DTS
Duration : 1h 33mn
Bit rate mode : Constant
Bit rate : 755 Kbps
Channel(s) : 6 channels
Channel positions : Front: L C R, Side: L R, LFE
Sampling rate : 48.0 KHz
Bit depth : 24 bits
Compression mode : Lossy
Stream size : 506 MiB (2%)
Title : Дубляж R5
Language : Russian
Audio #2
ID : 3
Format : DTS
Format/Info : Digital Theater Systems
Codec ID : A_DTS
Duration : 1h 33mn
Bit rate mode : Constant
Bit rate : 1 510 Kbps
Channel(s) : 6 channels
Channel positions : Front: L C R, Side: L R, LFE
Sampling rate : 48.0 KHz
Bit depth : 24 bits
Compression mode : Lossy
Stream size : 1 012 MiB (4%)
Title : DVO-OzzTV
Language : Russian
Audio #3
ID : 4
Format : DTS
Format/Info : Digital Theater Systems
Format profile : MA / Core
Codec ID : A_DTS
Duration : 1h 33mn
Bit rate mode : Variable
Bit rate : 1 561 Kbps / 1 510 Kbps
Channel(s) : 6 channels
Channel positions : Front: L C R, Side: L R, LFE
Sampling rate : 48.0 KHz
Bit depth : 24 bits
Compression mode : Lossless / Lossy
Title : AVO-Ю.Сербин
Language : Russian
Audio #4
ID : 5
Format : DTS
Format/Info : Digital Theater Systems
Format profile : MA / Core
Codec ID : A_DTS
Duration : 1h 33mn
Bit rate mode : Variable
Bit rate : 1 561 Kbps / 1 510 Kbps
Channel(s) : 6 channels
Channel positions : Front: L C R, Side: L R, LFE
Sampling rate : 48.0 KHz
Bit depth : 24 bits
Compression mode : Lossless / Lossy
Title : DVO-Кубик в кубе
Language : Russian
Audio #5
ID : 6
Format : DTS
Format/Info : Digital Theater Systems
Format profile : MA / Core
Codec ID : A_DTS
Duration : 1h 33mn
Bit rate mode : Variable
Bit rate : 1 561 Kbps / 1 510 Kbps
Channel(s) : 6 channels
Channel positions : Front: L C R, Side: L R, LFE
Sampling rate : 48.0 KHz
Bit depth : 24 bits
Compression mode : Lossless / Lossy
Title : Оригинал
Language : English
Audio #6
ID : 7
Format : AC-3
Format/Info : Audio Coding 3
Mode extension : CM (complete main)
Codec ID : A_AC3
Duration : 1h 33mn
Bit rate mode : Constant
Bit rate : 224 Kbps
Channel(s) : 2 channels
Channel positions : Front: L R
Sampling rate : 48.0 KHz
Bit depth : 16 bits
Compression mode : Lossy
Stream size : 150 MiB (1%)
Title : AAC 2.0ch - Commentary
Language : English
Text #1
ID : 8
Format : UTF-8
Codec ID : S_TEXT/UTF8
Codec ID/Info : UTF-8 Plain Text
Title : Sub-R5
Language : Russian
Text #2
ID : 9
Format : UTF-8
Codec ID : S_TEXT/UTF8
Codec ID/Info : UTF-8 Plain Text
Title : Sub-forced.Voronine
Language : Russian
Text #3
ID : 10
Format : UTF-8
Codec ID : S_TEXT/UTF8
Codec ID/Info : UTF-8 Plain Text
Title : Sub-full.SDH.Voronine
Language : Russian
Text #4
ID : 11
Format : UTF-8
Codec ID : S_TEXT/UTF8
Codec ID/Info : UTF-8 Plain Text
Title : Sub-full.Voronine
Language : Russian
Text #5
ID : 12
Format : UTF-8
Codec ID : S_TEXT/UTF8
Codec ID/Info : UTF-8 Plain Text
Title : Sub
Language : English
Menu
00:00:00.000 : 00:00:00.000
00:05:08.141 : 00:05:08.141
00:07:55.975 : 00:07:55.975
00:10:46.729 : 00:10:46.729
00:14:42.924 : 00:14:42.924
00:20:43.534 : 00:20:43.534
00:25:02.209 : 00:25:02.209
00:29:34.898 : 00:29:34.898
00:32:16.434 : 00:32:16.434
00:35:46.728 : 00:35:46.728
00:40:12.368 : 00:40:12.368
00:45:48.704 : 00:45:48.704
00:48:48.968 : 00:48:48.968
00:52:01.744 : 00:52:01.744
00:56:05.988 : 00:56:05.988
01:00:57.320 : 01:00:57.320
01:03:19.629 : 01:03:19.629
01:06:43.208 : 01:06:43.208
01:10:24.262 : 01:10:24.262
01:12:31.222 : 01:12:31.222
01:15:33.237 : 01:15:33.237
01:19:51.704 : 01:19:51.704
01:23:28.545 : 01:23:28.545
01:28:07.908 : 01:28:07.908
Скачать

Скачать торрент!

Как скачивать? · Что такое торрент? · Рейтинг и ограничения

Сайт не распространяет и не хранит электронные версии произведений, а лишь предоставляет доступ к создаваемому пользователями каталогу ссылок на торрент-файлы, которые содержат только списки хеш-сумм

[Профиль] [ЛС]
Показать сообщения:    
Ответить на тему

Текущее время: Сегодня 16:14

Часовой пояс: GMT + 4



Вы не можете начинать темы
Вы не можете отвечать на сообщения
Вы не можете редактировать свои сообщения
Вы не можете удалять свои сообщения
Вы не можете голосовать в опросах
Вы не можете прикреплять файлы к сообщениям
Вы не можете скачивать файлы