Тепло наших тел / Warm Bodies (Джонатан Левин / Jonathan Levine) [2013 г., США, мелодрама, драма, ужасы, комедия, BDRip] (Open Matte) Dub

Ответить на тему
 
Автор Сообщение

user ®

Стаж: 7 лет 7 месяцев

Сообщений: 20008

Пост Пост: #1 от 27-Сен-2013 00:10

[Цитировать]

Тепло наших телWarm Bodies Год выпуска: 2013
Страна: США
Жанр: мелодрама, драма, ужасы, комедия
Продолжительность: 01:37:45
Перевод: Профессиональный полное дублирование НТВ+
Cубтитры: нет-Режиссёр: Джонатан Левин / Jonathan Levine-В ролях:
Николас Холт, Анали Типтон, Тереза Палмер, Роб Кордри, Дэйв Франко, Джон Малкович, Кори Хардрикт, Дэниэл Риндресс-Кей, Винсент Леклерк, Клиффорд ЛеДюк-Вайанкур, Билли Кальмо, Адам Дрисколл, Крис Каверен, Джонатан Дубски, Алек Буржуа, Роберт Рейнольдс, Феликс Бержерон, Джози Лавиолетт, Савьер Вэйллэнкорт, Джон Топор, Аарон Янке, Аиша Исса, Чимвемве Миллер, Кристин Родригез, Серж Ален Камбронне, Дэбби Вонг, Куинн О’Нилл-Описание:
Мир поражен чумой и стоит на грани вымирания. Покойники ходят по земле и норовят употребить в пищу живых, которые, оставшись в катастрофическом меньшинстве, с трудом держат оборону. Перемены начинаются, когда один зомби, чье имя при жизни начиналось на «Р», спасает девушку вместо того, чтобы ее съесть. Дружба, завязавшаяся между представителями враждующих сторон, грозит обоим самыми нехорошими последствиями. Но Р и Джули, сами того не подозревая, держат в руках простой и единственный ключ к спасению гибнущего мира.-
  • Фильм снят по мотивам романа Айзека Мариона «Тепло наших тел» (Warm Bodies, 2010)
  • История частично основана на трагедии Шекспира — «Ромео и Джульетта», об этом можно догадаться по именам героев. «Р» — «Ромео», «Джулия» — «Джульетта», «Перри» — «Парис», «М» — «Меркуцио», «Нора» — «медсестра» Джульетты (персонаж Норы в фильме — медсестра).
  • Первоначально Нора должна была быть темнокожей и наполовину эфиопкой, но вместо этого решили взять белокожую актрису (Аналей Типтон).
  • Премьера в США состоялась 1 февраля 2013 года, в России — 31 января 2013. Съёмки проходили в Монреале.

-
-IMDB: 6.9/10 (99 070 votes)
Кинопоиск: 7.023 (30 186)- -Сэмпл--Качество видео: BDRip
Формат видео: AVI
Видео кодек: XviD
Аудио кодек: АС3
Видео: 720x400 (1.80:1), 23.976 fps, XviD, ~1676 kbps avg, 0.24 bit/pixel
Аудио: 48 kHz, AC3 Dolby Digital, 3/2 (L,C,R,l,r) + LFE ch, ~448 kbps

MI

General
Complete name : D:\Teplo.Nashih.Tel.2013.BDRip.avi
Format : AVI
Format/Info : Audio Video Interleave
File size : 1.46 GiB
Duration : 1h 37mn
Overall bit rate : 2 134 Kbps
Writing application : VirtualDubMod 1.5.10.3 (build 2550/release)
Writing library : VirtualDubMod build 2550/release
Video
ID : 0
Format : MPEG-4 Visual
Format profile : Advanced Simple@L5
Format settings, BVOP : 1
Format settings, QPel : No
Format settings, GMC : No warppoints
Format settings, Matrix : Custom
Codec ID : XVID
Codec ID/Hint : XviD
Duration : 1h 37mn
Bit rate : 1 677 Kbps
Width : 720 pixels
Height : 400 pixels
Display aspect ratio : 16:9
Frame rate : 23.976 fps
Color space : YUV
Chroma subsampling : 4:2:0
Bit depth : 8 bits
Scan type : Progressive
Compression mode : Lossy
Bits/(Pixel*Frame) : 0.243
Stream size : 1.15 GiB (79%)
Writing library : XviD 64
Audio
ID : 1
Format : AC-3
Format/Info : Audio Coding 3
Mode extension : CM (complete main)
Codec ID : 2000
Duration : 1h 37mn
Bit rate mode : Constant
Bit rate : 448 Kbps
Channel(s) : 6 channels
Channel positions : Front: L C R, Side: L R, LFE
Sampling rate : 48.0 KHz
Bit depth : 16 bits
Compression mode : Lossy
Stream size : 313 MiB (21%)
Alignment : Split accross interleaves
Interleave, duration : 42 ms (1.00 video frame)
Interleave, preload duration : 500 ms

Скриншоты



Скачать

Скачать торрент!

Как скачивать? · Что такое торрент? · Рейтинг и ограничения

Сайт не распространяет и не хранит электронные версии произведений, а лишь предоставляет доступ к создаваемому пользователями каталогу ссылок на торрент-файлы, которые содержат только списки хеш-сумм

[Профиль] [ЛС]
Показать сообщения:    
Ответить на тему

Текущее время: Сегодня 00:36

Часовой пояс: GMT + 4



Вы не можете начинать темы
Вы не можете отвечать на сообщения
Вы не можете редактировать свои сообщения
Вы не можете удалять свои сообщения
Вы не можете голосовать в опросах
Вы не можете прикреплять файлы к сообщениям
Вы не можете скачивать файлы