Москва слезам не верит (Владимир Меньшов) [1979, СССР, драма, мелодрама, комедия, BDRip 1080p]

Ответить на тему
 
Автор Сообщение

user ®

Стаж: 7 лет 7 месяцев

Сообщений: 20008

Пост Пост: #1 от 26-Сен-2013 05:25

[Цитировать]

Москва слезам не верит Страна: СССР
Жанр: драма, мелодрама, комедия
Год выпуска: 1979
Продолжительность: 02:28:17
Перевод: Не требуется
Cубтитры: нет
Оригинальная аудиодорожка: русский
Меню: Нет
Режиссер: Владимир Меньшов
В ролях: Вера Алентова (Екатерина Александровна Тихомирова (Катя)), Ирина Муравьёва (Людмила Свиридова (Люда)), Алексей Баталов (Георгий Иванович (Гоша,Гога), заводской слесарь, возлюбленный Катерины), Раиса Рязанова (Антонина Буянова (Тося,Тоня)), Александр Фатюшин (Сергей Гурин, известный хоккеист, муж Людмилы), Борис Сморчков (Николай, рабочий на стройке, муж Антонины), Виктор Уральский (отец Николая), Валентина Ушакова (мама Николая), Юрий Васильев (Рудольф (Родион) Петрович Рачков, телеоператор из Останкино, отец ребенка Катерины), Евгения Ханаева (мама Рачкова), Зоя Фёдорова (тётя Паша, вахтерша), Наталья Вавилова (Александра Александровна Тихомирова (Сашка), дочь Катерины и Рачкова)
Описание: Москва пятидесятых годов. Три молодые провинциалки приезжают в Москву в поисках того, что ищут люди во всех столицах мира - любви, счастья и достатка. Их судьбы складываются именно так, как предполагает характер каждой из девушек.
Антонина выходит замуж, растит детей, любит мужа. Людмиле Москва представляется лотереей, в которой она должна выиграть свое особенное счастье. Катерина же - отчаянно влюбляется, но избранник ее оставляет. Однако она не опускает руки, в одиночку растит дочь и к тому же успевает сделать блестящую карьеру. В сорок лет судьба дарит ей встречу с прекрасным человеком и настоящую любовь...
Тип релиза: BDRip 1080p
Контейнер: MKV
Видео: AVC Video / 11.9 Mbps / 1424x1080 / 23,976 fps / 4:3 / High Profile 4.1
Аудио: DTS / 48000 Hz / 6 ch / 1510 Kbps-Кинопоиск | Сэмпл-

MediaInfo

Общее
Уникальный идентификатор : 177677017727598165247596668494794217452 (0x85AB5950AA3DCEBFA1A67AD1DD7C57EC)
Полное имя : D:\Москва слезам не верит.mkv
Формат : Matroska
Версия формата : Version 2
Размер файла : 13,8 Гбайт
Продолжительность : 2 ч. 28 м.
Общий поток : 13,4 Мбит/сек
Название фильма : Москва слезам не верит_Rip1080
Дата кодирования : UTC 2013-09-15 15:19:16
Программа кодирования : mkvmerge v5.5.0 ('Healer') built on Apr 24 2012 23:47:03
Библиотека кодирования : libebml v1.2.3 + libmatroska v1.3.0
Видео
Идентификатор : 1
Формат : AVC
Формат/Информация : Advanced Video Codec
Профиль формата : High@L4.1
Параметр CABAC формата : Да
Параметр ReFrames формата : 5 кадров
Режим смешивания : Header stripping
Идентификатор кодека : V_MPEG4/ISO/AVC
Продолжительность : 2 ч. 28 м.
Битрейт : 11,9 Мбит/сек
Ширина : 1424 пикселя
Высота : 1080 пикселей
Соотношение сторон : 4:3
Режим частоты кадров : Постоянный
Частота кадров : 23,976 кадра/сек
Цветовое пространство : YUV
Субдискретизация насыщенности : 4:2:0
Битовая глубина : 8 бит
Тип развёртки : Прогрессивная
Бит/(Пиксели*Кадры) : 0.322
Размер потока : 12,0 Гбайт (87%)
Библиотека кодирования : x264 core 116 r2074 2641b9e
Настройки программы : cabac=1 / ref=5 / deblock=1:-3:-3 / analyse=0x3:0x113 / me=umh / subme=10 / psy=1 / psy_rd=1.00:0.00 / mixed_ref=1 / me_range=32 / chroma_me=1 / trellis=2 / 8x8dct=1 / cqm=0 / deadzone=21,11 / fast_pskip=0 / chroma_qp_offset=-1 / threads=6 / sliced_threads=0 / slices=4 / nr=0 / decimate=1 / interlaced=0 / bluray_compat=0 / constrained_intra=0 / bframes=7 / b_pyramid=2 / b_adapt=2 / b_bias=0 / direct=1 / weightb=1 / open_gop=0 / weightp=2 / keyint=250 / keyint_min=23 / scenecut=40 / intra_refresh=0 / rc_lookahead=40 / rc=2pass / mbtree=0 / bitrate=11864 / ratetol=1.0 / qcomp=0.60 / qpmin=10 / qpmax=51 / qpstep=4 / cplxblur=20.0 / qblur=0.5 / vbv_maxrate=50000 / vbv_bufsize=50000 / nal_hrd=none / ip_ratio=1.40 / pb_ratio=1.30 / aq=1:1.00
Язык : English
Default : Нет
Forced : Нет
Аудио
Идентификатор : 2
Формат : DTS
Формат/Информация : Digital Theater Systems
Режим : 16
Параметр Endianness формата : Big
Режим смешивания : Header stripping
Идентификатор кодека : A_DTS
Продолжительность : 2 ч. 28 м.
Вид битрейта : Постоянный
Битрейт : 1509 Кбит/сек
Каналы : 6 каналов
Расположение каналов : Front: L C R, Side: L R, LFE
Частота : 48,0 КГц
Битовая глубина : 24 бит
Метод сжатия : С потерями
Размер потока : 1,56 Гбайт (11%)
Default : Да
Forced : Нет

Скриншоты

Скачать

Скачать торрент!

Как скачивать? · Что такое торрент? · Рейтинг и ограничения

Сайт не распространяет и не хранит электронные версии произведений, а лишь предоставляет доступ к создаваемому пользователями каталогу ссылок на торрент-файлы, которые содержат только списки хеш-сумм

[Профиль] [ЛС]
Показать сообщения:    
Ответить на тему

Текущее время: Сегодня 22:26

Часовой пояс: GMT + 4



Вы не можете начинать темы
Вы не можете отвечать на сообщения
Вы не можете редактировать свои сообщения
Вы не можете удалять свои сообщения
Вы не можете голосовать в опросах
Вы не можете прикреплять файлы к сообщениям
Вы не можете скачивать файлы