Дон Кихот Ламанческий / Don Quixote of La Mancha (Уорвик Гилберт / Warwick Gilbert) [1987 г., мультфильм, рисованная анимация, экранизация, DVDRip] DVO + Original (Eng)

Ответить на тему
 
Автор Сообщение

user ®

Стаж: 13 лет

Сообщений: 15041

Пост Пост: #1 от 26-Сен-2013 02:15

[Цитировать]

Дон Кихот Ламанческий / Don Quixote of La Mancha Страна: Австралия
Жанр: мультфильм, рисованная анимация, экранизация
Продолжительность: ~ 0:48:23
Год выпуска: 1987
Производитель: Burbank Films Australia
Перевод: Профессиональный (двухголосый закадровый), Студия "Инис" по заказу "Централ Партнершип"
Оригинал: английский
Русские субтитры: отсутствуют
Режиссёр: Уорвик Гилберт /Warwick Gilbert/
сценарий: Джоэль Кэйн /Joel Kane/, Мигель де Сервантес Сааведра /Miguel de Cervantes y Saavedra/ (роман)
продюсеры: Тим Брук-Хант, Роз Филлипс, Том Стэйси
композитор: Марк Исаак /Mark Isaacs/
Роли озвучивают: Роберт Хелпмэнн /Robert Helpmann/, Крис Хэйвуд /Chris Haywood/, Филлип Хинтон /Phillip Hinton/, Питер Кэй /Peter Kaye/, Джилл МакКэй /Jill McKay/, Кит Робинсон /Keith Robinson/Описание:Эта знаменитая история по мотивам романа Мигеля де Сервантеса рассказывает об удивительных приключениях дворянина Дон Кихота Ламанческого, который облачается в старые доспехи и отправляется в рыцарский поход по Средневековой Испании, чтобы защитить справедливость и сделать мир лучше. Его верный оруженосец Санчо Панса отправляется в путь вместе с ним и разделяет со своим хозяином все тяготы рыцарского похода.
Качество: DVDRip
Формат: AVI
Видео: 704x528 (1.33:1), 25 fps, XviD build 64 ~1747 kbps avg, 0.19 bit/pixel
Аудио: 48 kHz, AC3 Dolby Digital, 2/0 (L,R) ch, ~192 kbps – Russian
Аудио 2: 48 kHz, AC3 Dolby Digital, 2/0 (L,R) ch, ~192 kbps – English
Субтитры: Отсутствуют

Подробные технические данные

ОбщееПолное имя : D:\Мульты\Don_Kihot_Lamancheskiy_(Don_Quixote_of_La_Mancha,_1987).aviФормат : AVIФормат/Информация : Audio Video InterleaveРазмер файла : 743 МбайтПродолжительность : 48 м.Общий поток : 2147 Кбит/секПрограмма кодирования : VirtualDubMod 1.5.10.2 (build 2540/release)Библиотека кодирования : VirtualDubMod build 2540/release
ВидеоИдентификатор : 0Формат : MPEG-4 VisualПрофиль формата : Advanced Simple@L5Параметр BVOP формата : 2Параметр QPel формата : НетПараметр GMC формата : Без точки переходаПараметр матрицы формата : ВыборочнаяИдентификатор кодека : XVIDИдентификатор кодека/Подсказка : XviDПродолжительность : 48 м.Битрейт : 1749 Кбит/секШирина : 704 пикселяВысота : 528 пикселейСоотношение сторон : 4:3Частота кадров : 25,000 кадров/секЦветовое пространство : YUVСубдискретизация насыщенности : 4:2:0Битовая глубина : 8 битТип развёртки : ПрогрессивнаяМетод сжатия : С потерямиБит/(Пиксели*Кадры) : 0.188Размер потока : 605 Мбайт (81%)Библиотека кодирования : XviD 64
Аудио #1Идентификатор : 1Формат : AC-3Формат/Информация : Audio Coding 3Расширение режима : CM (complete main)Идентификатор кодека : 2000Продолжительность : 48 м.Вид битрейта : ПостоянныйБитрейт : 192 Кбит/секКаналы : 2 каналаРасположение каналов : Front: L RЧастота : 48,0 КГцБитовая глубина : 16 битМетод сжатия : С потерямиРазмер потока : 66,4 Мбайт (9%)Выравнивание : Разделение по промежуткамПродолжительность промежутка : 40 мс. (1,00 видеокадр)Время предзагрузки промежутка : 500 мс.Заголовок : Rus
Аудио #2Идентификатор : 2Формат : AC-3Формат/Информация : Audio Coding 3Расширение режима : CM (complete main)Идентификатор кодека : 2000Продолжительность : 48 м.Вид битрейта : ПостоянныйБитрейт : 192 Кбит/секКаналы : 2 каналаРасположение каналов : Front: L RЧастота : 48,0 КГцБитовая глубина : 16 битМетод сжатия : С потерямиРазмер потока : 66,4 Мбайт (9%)Выравнивание : Разделение по промежуткамПродолжительность промежутка : 40 мс. (1,00 видеокадр)Время предзагрузки промежутка : 500 мс.Заголовок : Eng (original)
Subtitles: Not Present

Скриншоты

--
Скачать

Скачать торрент! Дон Кихот Ламанческий / Don Quixote of La Mancha (Уорвик Гилберт / Warwick Gilbert) [1987 г., мультфильм, рисованная анимация, экранизация, DVDRip] DVO + Original (Eng)

Как скачивать? · Что такое торрент? · Рейтинг и ограничения

Сайт не распространяет и не хранит электронные версии произведений, а лишь предоставляет доступ к создаваемому пользователями каталогу ссылок на торрент-файлы, которые содержат только списки хеш-сумм

[Профиль] [ЛС]
Показать сообщения:    
Ответить на тему

Текущее время: Сегодня 19:01

Часовой пояс: GMT + 4



Вы не можете начинать темы
Вы не можете отвечать на сообщения
Вы не можете редактировать свои сообщения
Вы не можете удалять свои сообщения
Вы не можете голосовать в опросах
Вы не можете прикреплять файлы к сообщениям
Вы не можете скачивать файлы