Бионический мальчик / Bionic Boy (2 части) (Леоди М. Диас / Leody M. Diaz) [1977-1979, Филиппины, Гонконг, боевик, фантастика, DVDRip]

Ответить на тему
 
Автор Сообщение

user ®

Стаж: 11 лет

Сообщений: 15151

Пост Пост: #1 от 26-Сен-2013 02:15

[Цитировать]

Бионический мальчик / Bionic Boy (2 части)
Страна: Филиппины, Гонконг
Жанр: боевик, фантастика
Год выпуска: 1977-1979
Продолжительность: 01:25:45; 01:35:14
Перевод: Авторский (одноголосый закадровый) Андрей Дольский
Режиссер: Леоди М. Диас / Leody M. Diaz
В ролях:
Susan Beacher
Керри Чандлер
Кэрол Кинг
Дэвид МакКой
Стив Николсон
Клем Персонс
Дебра Роджерс
Рон Роджерс
Кэтлин Скерини
Лорли Вильянуэва
Описание: Фильм про бионического мальчика, который не жалея бионических сил, истребляет мировую преступность.
Релиз:

Качество видео: DVDRip
Формат видео: AVI
Видео: MPEG-4 Visual, XviD, 1 450 Kbps, 720x576, 25.000 fps
Аудио: MPEG Audio, Layer 3, MP3, 2 channels, 48.0 KHz

инфо

General
Complete name : D:\Бионический мальчик\Бионикбой1.avi
Format : AVI
Format/Info : Audio Video Interleave
File size : 1 012 MiB
Duration : 1h 25mn
Overall bit rate : 1 650 Kbps
Video
ID : 0
Format : MPEG-4 Visual
Format profile : Advanced Simple@L5
Format settings, BVOP : No
Format settings, QPel : No
Format settings, GMC : No warppoints
Format settings, Matrix : Default (H.263)
Codec ID : XVID
Codec ID/Hint : XviD
Duration : 1h 25mn
Bit rate : 1 450 Kbps
Width : 720 pixels
Height : 576 pixels
Display aspect ratio : 5:4
Frame rate : 25.000 fps
Standard : PAL
Color space : YUV
Chroma subsampling : 4:2:0
Bit depth : 8 bits
Scan type : Progressive
Compression mode : Lossy
Bits/(Pixel*Frame) : 0.140
Stream size : 889 MiB (88%)
Writing library : XviD 62
Audio
ID : 1
Format : MPEG Audio
Format version : Version 1
Format profile : Layer 3
Codec ID : 55
Codec ID/Hint : MP3
Duration : 1h 25mn
Bit rate mode : Constant
Bit rate : 192 Kbps
Channel count : 2 channels
Sampling rate : 48.0 KHz
Compression mode : Lossy
Stream size : 118 MiB (12%)
Alignment : Split accross interleaves
Interleave, duration : 80 ms (2.00 video frames)
Writing library : LAMELAME_MAJOR_VERSI
Скачать

Скачать торрент! Бионический мальчик / Bionic Boy (2 части) (Леоди М. Диас / Leody M. Diaz) [1977-1979, Филиппины, Гонконг, боевик, фантастика, DVDRip]

Как скачивать? · Что такое торрент? · Рейтинг и ограничения

Сайт не распространяет и не хранит электронные версии произведений, а лишь предоставляет доступ к создаваемому пользователями каталогу ссылок на торрент-файлы, которые содержат только списки хеш-сумм

[Профиль] [ЛС]
Показать сообщения:    
Ответить на тему

Текущее время: Сегодня 11:50

Часовой пояс: GMT + 4



Вы не можете начинать темы
Вы не можете отвечать на сообщения
Вы не можете редактировать свои сообщения
Вы не можете удалять свои сообщения
Вы не можете голосовать в опросах
Вы не можете прикреплять файлы к сообщениям
Вы не можете скачивать файлы