Кровь искупления / Blood of Redemption (Джорджо Серафини / Giorgio Serafini, Шон Сургос / Shawn Sourgose) [2013, Боевик, триллер, драма, криминал, BDRip-AVC] MVO + Original (Eng) + Sub (eng)

Ответить на тему
 
Автор Сообщение

user ®

Стаж: 7 лет 7 месяцев

Сообщений: 20008

Пост Пост: #1 от 26-Сен-2013 02:15

[Цитировать]

Кровь искупления / Blood of Redemption- Страна: США / VMI Worldwide, High Five Films
Жанр: Боевик, триллер, драма, криминал
Год выпуска: 2013
Продолжительность: 01:25:10-Перевод: Любительский (многоголосый закадровый)
Cубтитры: английские
Формат субтитров: softsub (SRT)
Оригинальная аудиодорожка: английский
Навигация по главам: Есть-Режиссер: Джорджо Серафини / Giorgio Serafini, Шон Сургос / Shawn Sourgose
В ролях: Дольф Лундгрен, Винни Джонс, Билли Зейн, Джанни Капальди, Роберт Дави, Роберт Миано, Масси Фурлан, ЛаДон Драммонд, Джелли Хоуи, Дженнифер Сайпс
Описание: Куинн Форте имел всё: власть, богатство, брата, боготворивший его, и женщину, которая очень любила его. Преданный кем-то из друзей, в одну ночь он теряет всё. Его отец — глава криминального клана убит, а брат считает, что это вина именно Куинна, который оказывается за решеткой. После освобождения из тюрьмы, герой объединяется со своим бывшим ставленником и близким другом и наносит врагам ответный удар.-
Релиз от:
Автор рипа: potroks-Качество видео: BDRip-AVC [Blood of Redemption 2013.BluRay 1080p AVC DTS-HD MA5 1-CHDBits]
Формат видео: MKV
Видео: х.264, 1024x576 (16:9), 23,976 fps, 1552 Кbps, 0.110 bit/pixel
Аудио#1: 48 kHz, AC3 Dolby Digital, 3/2 (L,C,R,l,r) + LFE ch, 448.00 kbps | RUS
Аудио#2: 48 kHz, AC3 Dolby Digital, 3/2 (L,C,R,l,r) + LFE ch, 448.00 kbps | ENG

MediaInfo

Общее
Уникальный идентификатор : 245041854099168117262372272393016284787 (0xB859582D779F84CC941288EBD0E39673)
Полное имя : Krov'.Iskuplenija.2013.DUAL.BDRip.x264.-HELLYWOOD.mkv
Формат : Matroska
Версия формата : Version 4 / Version 2
Размер файла : 1,46 Гбайт
Продолжительность : 1 ч. 25 м.
Общий поток : 2449 Кбит/сек
Название фильма : HELLYWOOD - rip by potroks
Дата кодирования : UTC 2013-09-25 17:37:26
Программа кодирования : mkvmerge v5.9.0 ('On The Loose') built on Dec 15 2012 16:39:58
Библиотека кодирования : libebml v1.3.0 + libmatroska v1.4.0
Видео
Идентификатор : 1
Формат : AVC
Формат/Информация : Advanced Video Codec
Профиль формата : High@L4.1
Параметр CABAC формата : Да
Параметр ReFrames формата : 13 кадров
Идентификатор кодека : V_MPEG4/ISO/AVC
Продолжительность : 1 ч. 25 м.
Битрейт : 1552 Кбит/сек
Ширина : 1024 пикселя
Высота : 576 пикселей
Соотношение сторон : 16:9
Режим частоты кадров : Постоянный
Частота кадров : 23,976 кадра/сек
Цветовое пространство : YUV
Субдискретизация насыщенности : 4:2:0
Битовая глубина : 8 бит
Тип развёртки : Прогрессивная
Бит/(Пиксели*Кадры) : 0.110
Размер потока : 917 Мбайт (61%)
Заголовок : Blood of Redemption
Библиотека кодирования : x264 core 130 r2273 b3065e6
Настройки программы : cabac=1 / ref=13 / deblock=1:-2:-2 / analyse=0x3:0x133 / me=umh / subme=11 / psy=1 / psy_rd=1.02:0.00 / mixed_ref=1 / me_range=48 / chroma_me=1 / trellis=2 / 8x8dct=1 / cqm=0 / deadzone=21,11 / fast_pskip=0 / chroma_qp_offset=-2 / threads=8 / lookahead_threads=2 / sliced_threads=0 / nr=0 / decimate=0 / interlaced=0 / bluray_compat=0 / constrained_intra=0 / bframes=14 / b_pyramid=2 / b_adapt=2 / b_bias=0 / direct=3 / weightb=1 / open_gop=0 / weightp=2 / keyint=250 / keyint_min=23 / scenecut=40 / intra_refresh=0 / rc_lookahead=60 / rc=2pass / mbtree=0 / bitrate=1552 / ratetol=1.0 / qcomp=0.70 / qpmin=0 / qpmax=69 / qpstep=4 / cplxblur=20.0 / qblur=0.5 / vbv_maxrate=20000 / vbv_bufsize=25000 / nal_hrd=none / ip_ratio=1.35 / pb_ratio=1.40 / aq=1:0.70
Язык : English
Default : Да
Forced : Нет
Аудио #1
Идентификатор : 2
Формат : AC-3
Формат/Информация : Audio Coding 3
Расширение режима : CM (complete main)
Параметр Endianness формата : Big
Идентификатор кодека : A_AC3
Продолжительность : 1 ч. 25 м.
Вид битрейта : Постоянный
Битрейт : 448 Кбит/сек
Каналы : 6 каналов
Расположение каналов : Front: L C R, Side: L R, LFE
Частота : 48,0 КГц
Битовая глубина : 16 бит
Метод сжатия : С потерями
Размер потока : 273 Мбайт (18%)
Заголовок : MVO | DD 5.1 @ 448 kbps
Язык : Russian
Default : Да
Forced : Да
Аудио #2
Идентификатор : 3
Формат : AC-3
Формат/Информация : Audio Coding 3
Расширение режима : CM (complete main)
Параметр Endianness формата : Big
Идентификатор кодека : A_AC3
Продолжительность : 1 ч. 25 м.
Вид битрейта : Постоянный
Битрейт : 448 Кбит/сек
Каналы : 6 каналов
Расположение каналов : Front: L C R, Side: L R, LFE
Частота : 48,0 КГц
Битовая глубина : 16 бит
Метод сжатия : С потерями
Размер потока : 273 Мбайт (18%)
Заголовок : Original | DD 5.1 @ 448 kbps
Язык : English
Default : Нет
Forced : Нет
Текст
Идентификатор : 4
Формат : UTF-8
Идентификатор кодека : S_TEXT/UTF8
Идентификатор кодека/Информация : UTF-8 Plain Text
Язык : English
Default : Нет
Forced : Нет
Меню
00:00:00.000 : en:
00:04:46.000 : en:
00:07:44.000 : en:
00:11:18.000 : en:
00:17:34.000 : en:
00:24:36.000 : en:
00:29:50.000 : en:
00:33:27.000 : en:
00:40:18.000 : en:
00:43:04.000 : en:
00:47:23.000 : en:
00:50:10.000 : en:
00:55:15.000 : en:
00:58:09.000 : en:
01:01:17.000 : en:
01:06:13.000 : en:
01:11:13.000 : en:
01:16:21.000 : en:

Скриншоты

Скачать

Скачать торрент!

Как скачивать? · Что такое торрент? · Рейтинг и ограничения

Сайт не распространяет и не хранит электронные версии произведений, а лишь предоставляет доступ к создаваемому пользователями каталогу ссылок на торрент-файлы, которые содержат только списки хеш-сумм

[Профиль] [ЛС]
Показать сообщения:    
Ответить на тему

Текущее время: Сегодня 07:49

Часовой пояс: GMT + 4



Вы не можете начинать темы
Вы не можете отвечать на сообщения
Вы не можете редактировать свои сообщения
Вы не можете удалять свои сообщения
Вы не можете голосовать в опросах
Вы не можете прикреплять файлы к сообщениям
Вы не можете скачивать файлы