Черный дождь / Black Rain (Ридли Скотт / Ridley Scott) [1989, США, боевик, триллер, драма, криминал, BDRip 1080p] 4 x MVO + 4 x AVO + VO + Original eng + Subs (Rus, Eng)

Ответить на тему
 
Автор Сообщение

user ®

Стаж: 7 лет 7 месяцев

Сообщений: 20008

Пост Пост: #1 от 25-Сен-2013 19:55

[Цитировать]

Черный дождь / Black Rain
«An American Cop in Japan. Their country. Their laws. Their game. His rules.»
-Год выпуска: 1989
Выпущено: США / Paramount Pictures
Жанр: боевик, триллер, драма, криминал
Продолжительность: 02:05:18
Перевод #1-4: Профессиональный (многоголосый закадровый / Киномания, UPR, Премьер-фильм, НТВ)
Перевод #5: Одноголосый закадровый / М.Яроцкий
Перевод #6-9: Авторский (одноголосый закадровый / Г.Либергал, В.Горчаков, А.Гаврилов, Ю.Медведев)
Оригинальная аудиодорожка: Английский
Режиссер: Ридли Скотт / Ridley Scott
В ролях: Майкл Дуглас, Энди Гарсиа, Кэн Такакура, Кейт Кэпшоу, Юсаку Мацуда, Сигэру Кояма, Джон Спенсер, Гуц Исимацу, Юя Утида, Томисабуро Вакаяма, Миюки Оно, Луис Гусман, Джон Костелло, Стивен Рут, Ричард Рили, Брюс Кацман-Сюжет: Двум нью-йоркским полицейским попадает в руки безжалостный убийца, принадлежащий к японской мафии-якудза. Партнерам предстоит эскортировать преступника в Осаку, где его ждет суд. Но на японской земле злодею удается скрыться. Герои вместе с японским детективом бросаются на его поиски и оказываются втянутыми в кровавую войну гангстерских кланов.-IMDB // КиноПоиск // Сэмпл-Качество видео: BDRip 1080p
Формат: MKV
Видео кодек: AVC
Аудио кодек: AC3 / DTS-ES
Видео: AVC, 1920 x 800, 23.976 fps, ~14212 Кбит/с
Аудио #1: AC3, 448 Кбит/с, 48 kHz (6 ch) Russian / Киномания
Аудио #2: AC3, 384 Кбит/с, 48 kHz (6 ch) Russian / UPR
Аудио #3: AC3, 192 Кбит/с, 48 kHz (2 ch) Russian / Премьер-фильм
Аудио #4: AC3, 192 Кбит/с, 48 kHz (2 ch) Russian / НТВ
Аудио #5: AC3, 192 Кбит/с, 48 kHz (2 ch) Russian / Г.Либергал
Аудио #6: AC3, 192 Кбит/с, 48 kHz (2 ch) Russian / В.Горчаков
Аудио #7: AC3, 448 Кбит/с, 48 kHz (6 ch) Russian / М.Яроцкий
Аудио #8: DTS-ES, 1536 Кбит/с, 48 kHz (7 ch) Russian / А.Гаврилов
Аудио #9: DTS-ES, 1536 Кбит/с, 48 kHz (7 ch) Russian / Ю.Медведев
Аудио #10: DTS-ES, 1536 Кбит/с, 48 kHz (7 ch) English
Аудио #11: AC3, 192 Кбит/с, 48 kHz (2 ch) English / Commentary
Cубтитры: Русские (Киномания), Английские
Навигация: 28 англоязычных глав
-

Encode vs Source


MediaInfo / final.xlog

final.xlog

[16:42:58,02 21.09.2013] Encoding video.avs : pass 1 of 1 at --crf 18.0
--crf 18.0 -p 1 --stats "D:\Zagotovki\Encode x264\video.crfmulti.stats" --preset veryslow --psy-rd 1.05:0.00 --slow-firstpass -b 8 -r 5 -f -3,-3 --vbv-maxrate 50000 --vbv-bufsize 62500 --level 4.1 -A all --subme 11 --me umh --merange 48 --b-pyramid normal --no-mbtree --no-fast-pskip --qcomp 0.80 --rc-lookahead 60 --keyint 240 --ipratio 1.40 --pbratio 1.20 --aq-mode 1 --aq-strength 0.60  --sar 1:1 --colormatrix "bt709" -o "video.avs.18.0.1pass.veryslow.264"
32bit OS detected: x86
avs [info]: 1920x800p 1:1 @ 24000/1001 fps (cfr)
x264 [info]: using SAR=1/1
x264 [info]: using cpu capabilities: MMX2 SSE2Fast SSSE3 SSE4.1 Cache64
x264 [info]: profile High, level 4.1
x264 [info]: cabac=1 ref=5 deblock=1:-3:-3 analyse=0x3:0x133 me=umh subme=11 psy=1 fade_compensate=0.00 psy_rd=1.05:0.00 mixed_ref=1 me_range=48 chroma_me=1 trellis=2 8x8dct=1 cqm=0 deadzone=21,11 fast_pskip=0 chroma_qp_offset=-2 threads=6 lookahead_threads=1 sliced_threads=0 nr=0 decimate=1 interlaced=0 bluray_compat=0 constrained_intra=0 bframes=8 b_pyramid=2 b_adapt=2 b_bias=0 direct=3 weightb=1 open_gop=0 weightp=2 keyint=240 keyint_min=23 scenecut=40 intra_refresh=0 rc_lookahead=60 rc=crf mbtree=0 crf=18.0000 qcomp=0.80 qpmin=0 qpmax=69 qpstep=4 vbv_maxrate=50000 vbv_bufsize=62500 crf_max=0.0 nal_hrd=none ip_ratio=1.40 pb_ratio=1.20 aq=1:0.60
x264 [info]: frame I:1432  Avg QP:15.65  size:199875
x264 [info]: frame P:35820 Avg QP:17.52  size:125136
x264 [info]: frame B:143002 Avg QP:19.32  size: 60047
x264 [info]: consecutive B-frames:  1.6%  1.6%  6.1% 11.0%  9.5% 66.7%  2.6%  0.5%  0.4%
x264 [info]: mb I  I16..4:  4.0% 87.5%  8.4%
x264 [info]: mb P  I16..4:  0.7% 29.2%  0.9%  P16..4: 21.1% 27.5% 12.0%  1.5%  0.0%    skip: 7.1%
x264 [info]: mb B  I16..4:  0.1%  3.8%  0.1%  B16..8: 39.3% 23.0%  4.9%  direct:11.4%  skip:17.4%  L0:37.1% L1:41.6% BI:21.3%
x264 [info]: 8x8 transform intra:94.8% inter:65.3%
x264 [info]: direct mvs  spatial:99.8% temporal:0.2%
x264 [info]: coded y,uvDC,uvAC intra: 94.8% 79.5% 50.2% inter: 56.7% 40.4% 2.9%
x264 [info]: i16 v,h,dc,p: 52% 13%  9% 26%
x264 [info]: i8 v,h,dc,ddl,ddr,vr,hd,vl,hu:  8%  6%  9% 12% 14% 14% 12% 13% 11%
x264 [info]: i4 v,h,dc,ddl,ddr,vr,hd,vl,hu:  9%  6%  8% 10% 15% 15% 12% 12% 12%
x264 [info]: i8c dc,h,v,p: 36% 26% 21% 16%
x264 [info]: Weighted P-Frames: Y:6.5% UV:4.3%
x264 [info]: ref P L0: 47.8% 11.7% 20.3% 10.0%  8.9%  1.2%  0.0%
x264 [info]: ref B L0: 87.0%  9.7%  2.6%  0.7%
x264 [info]: ref B L1: 95.7%  4.3%
x264 [info]: kb/s:14211.54
[ 0:21:11,00 23.09.2013] ======== encoded 180254 frames, 1.58 fps, 14211.54 kb/s, duration 31:38:10.61 ========
General
Unique ID                                : 239004305495009413288186054542025502023 (0xB3CE8E0C8D5CD8439C1B6C40BFE72D47)
Complete name                            : D:\VIDEO\Black.Rain.1989.BDRip.1080p.9xRus.2xEng.R.G.tRu.mkv
Format                                   : Matroska
Format version                           : Version 2
File size                                : 18.4 GiB
Duration                                 : 2h 5mn
Overall bit rate                         : 21.0 Mbps
Movie name                               : Black Rain 1989
Encoded date                             : UTC 2013-09-23 18:49:42
Writing application                      : mkvmerge v5.8.0 ('No Sleep / Pillow') built on Sep  2 2012 15:37:04
Writing library                          : libebml v1.2.3 + libmatroska v1.3.0
Attachment                               : Yes
Video
ID                                       : 1
Format                                   : AVC
Format/Info                              : Advanced Video Codec
Format profile                           : High@L4.1
Format settings, CABAC                   : Yes
Format settings, ReFrames                : 5 frames
Codec ID                                 : V_MPEG4/ISO/AVC
Duration                                 : 2h 5mn
Bit rate                                 : 13.8 Mbps
Width                                    : 1 920 pixels
Height                                   : 800 pixels
Display aspect ratio                     : 2.40:1
Frame rate mode                          : Constant
Frame rate                               : 23.976 fps
Color space                              : YUV
Chroma subsampling                       : 4:2:0
Bit depth                                : 8 bits
Scan type                                : Progressive
Bits/(Pixel*Frame)                       : 0.375
Stream size                              : 12.1 GiB (66%)
Title                                    : Black Rain
Writing library                          : x264 core 138 r2358kMod 9e941d1
Encoding settings                        : cabac=1 / ref=5 / deblock=1:-3:-3 / analyse=0x3:0x133 / me=umh / subme=11 / psy=1 / fade_compensate=0.00 / psy_rd=1.05:0.00 / mixed_ref=1 / me_range=48 / chroma_me=1 / trellis=2 / 8x8dct=1 / cqm=0 / deadzone=21,11 / fast_pskip=0 / chroma_qp_offset=-2 / threads=6 / lookahead_threads=1 / sliced_threads=0 / nr=0 / decimate=1 / interlaced=0 / bluray_compat=0 / constrained_intra=0 / bframes=8 / b_pyramid=2 / b_adapt=2 / b_bias=0 / direct=3 / weightb=1 / open_gop=0 / weightp=2 / keyint=240 / keyint_min=23 / scenecut=40 / intra_refresh=0 / rc_lookahead=60 / rc=crf / mbtree=0 / crf=18.0000 / qcomp=0.80 / qpmin=0 / qpmax=69 / qpstep=4 / vbv_maxrate=50000 / vbv_bufsize=62500 / crf_max=0.0 / nal_hrd=none / ip_ratio=1.40 / pb_ratio=1.20 / aq=1:0.60
Language                                 : English
Default                                  : Yes
Forced                                   : No
Matrix coefficients                      : BT.709
Audio #1
ID                                       : 2
Format                                   : AC-3
Format/Info                              : Audio Coding 3
Mode extension                           : CM (complete main)
Format settings, Endianness              : Big
Codec ID                                 : A_AC3
Duration                                 : 2h 5mn
Bit rate mode                            : Constant
Bit rate                                 : 448 Kbps
Channel(s)                               : 6 channels
Channel positions                        : Front: L C R, Side: L R, LFE
Sampling rate                            : 48.0 KHz
Bit depth                                : 16 bits
Compression mode                         : Lossy
Stream size                              : 402 MiB (2%)
Title                                    : Киномания
Language                                 : Russian
Default                                  : Yes
Forced                                   : No
Audio #2
ID                                       : 3
Format                                   : AC-3
Format/Info                              : Audio Coding 3
Mode extension                           : CM (complete main)
Format settings, Endianness              : Big
Codec ID                                 : A_AC3
Duration                                 : 2h 5mn
Bit rate mode                            : Constant
Bit rate                                 : 384 Kbps
Channel(s)                               : 6 channels
Channel positions                        : Front: L C R, Side: L R, LFE
Sampling rate                            : 48.0 KHz
Bit depth                                : 16 bits
Compression mode                         : Lossy
Stream size                              : 344 MiB (2%)
Title                                    : UPR
Language                                 : Russian
Default                                  : No
Forced                                   : No
Audio #3
ID                                       : 4
Format                                   : AC-3
Format/Info                              : Audio Coding 3
Mode extension                           : CM (complete main)
Format settings, Endianness              : Big
Codec ID                                 : A_AC3
Duration                                 : 2h 5mn
Bit rate mode                            : Constant
Bit rate                                 : 192 Kbps
Channel(s)                               : 2 channels
Channel positions                        : Front: L R
Sampling rate                            : 48.0 KHz
Bit depth                                : 16 bits
Compression mode                         : Lossy
Stream size                              : 172 MiB (1%)
Title                                    : Премьер-фильм
Language                                 : Russian
Default                                  : No
Forced                                   : No
Audio #4
ID                                       : 5
Format                                   : AC-3
Format/Info                              : Audio Coding 3
Mode extension                           : CM (complete main)
Format settings, Endianness              : Big
Codec ID                                 : A_AC3
Duration                                 : 2h 5mn
Bit rate mode                            : Constant
Bit rate                                 : 192 Kbps
Channel(s)                               : 2 channels
Channel positions                        : Front: L R
Sampling rate                            : 48.0 KHz
Bit depth                                : 16 bits
Compression mode                         : Lossy
Stream size                              : 172 MiB (1%)
Title                                    : НТВ
Language                                 : Russian
Default                                  : No
Forced                                   : No
Audio #5
ID                                       : 6
Format                                   : AC-3
Format/Info                              : Audio Coding 3
Mode extension                           : CM (complete main)
Format settings, Endianness              : Big
Codec ID                                 : A_AC3
Duration                                 : 2h 5mn
Bit rate mode                            : Constant
Bit rate                                 : 192 Kbps
Channel(s)                               : 2 channels
Channel positions                        : Front: L R
Sampling rate                            : 48.0 KHz
Bit depth                                : 16 bits
Compression mode                         : Lossy
Stream size                              : 172 MiB (1%)
Title                                    : Г.Либергал
Language                                 : Russian
Default                                  : No
Forced                                   : No
Audio #6
ID                                       : 7
Format                                   : AC-3
Format/Info                              : Audio Coding 3
Mode extension                           : CM (complete main)
Format settings, Endianness              : Big
Codec ID                                 : A_AC3
Duration                                 : 2h 5mn
Bit rate mode                            : Constant
Bit rate                                 : 192 Kbps
Channel(s)                               : 2 channels
Channel positions                        : Front: L R
Sampling rate                            : 48.0 KHz
Bit depth                                : 16 bits
Compression mode                         : Lossy
Stream size                              : 172 MiB (1%)
Title                                    : В.Горчаков
Language                                 : Russian
Default                                  : No
Forced                                   : No
Audio #7
ID                                       : 8
Format                                   : AC-3
Format/Info                              : Audio Coding 3
Mode extension                           : CM (complete main)
Format settings, Endianness              : Big
Codec ID                                 : A_AC3
Duration                                 : 2h 5mn
Bit rate mode                            : Constant
Bit rate                                 : 448 Kbps
Channel(s)                               : 6 channels
Channel positions                        : Front: L C R, Side: L R, LFE
Sampling rate                            : 48.0 KHz
Bit depth                                : 16 bits
Compression mode                         : Lossy
Stream size                              : 402 MiB (2%)
Title                                    : М.Яроцкий
Language                                 : Russian
Default                                  : No
Forced                                   : No
Audio #8
ID                                       : 9
Format                                   : DTS
Format/Info                              : Digital Theater Systems
Format profile                           : ES
Mode                                     : 16
Format settings, Endianness              : Big
Codec ID                                 : A_DTS
Duration                                 : 2h 5mn
Bit rate mode                            : Constant
Bit rate                                 : 1 510 Kbps
Channel(s)                               : 7 channels / 6 channels
Channel positions                        : Front: L C R, Side: L R, Back: C, LFE / Front: L C R, Side: L R, LFE
Sampling rate                            : 48.0 KHz
Bit depth                                : 24 bits
Compression mode                         : Lossy
Stream size                              : 1.32 GiB (7%)
Title                                    : А.Гаврилов
Language                                 : Russian
Default                                  : No
Forced                                   : No
Audio #9
ID                                       : 10
Format                                   : DTS
Format/Info                              : Digital Theater Systems
Format profile                           : ES
Mode                                     : 16
Format settings, Endianness              : Big
Codec ID                                 : A_DTS
Duration                                 : 2h 5mn
Bit rate mode                            : Constant
Bit rate                                 : 1 510 Kbps
Channel(s)                               : 7 channels / 6 channels
Channel positions                        : Front: L C R, Side: L R, Back: C, LFE / Front: L C R, Side: L R, LFE
Sampling rate                            : 48.0 KHz
Bit depth                                : 24 bits
Compression mode                         : Lossy
Stream size                              : 1.32 GiB (7%)
Title                                    : Ю.Медведев
Language                                 : Russian
Default                                  : No
Forced                                   : No
Audio #10
ID                                       : 11
Format                                   : DTS
Format/Info                              : Digital Theater Systems
Format profile                           : ES
Mode                                     : 16
Format settings, Endianness              : Big
Codec ID                                 : A_DTS
Duration                                 : 2h 5mn
Bit rate mode                            : Constant
Bit rate                                 : 1 509 Kbps
Channel(s)                               : 7 channels / 6 channels
Channel positions                        : Front: L C R, Side: L R, Back: C, LFE / Front: L C R, Side: L R, LFE
Sampling rate                            : 48.0 KHz
Bit depth                                : 24 bits
Compression mode                         : Lossy
Stream size                              : 1.32 GiB (7%)
Title                                    : Английский
Language                                 : English
Default                                  : No
Forced                                   : No
Audio #11
ID                                       : 12
Format                                   : AC-3
Format/Info                              : Audio Coding 3
Format profile                           : Dolby Digital
Mode extension                           : CM (complete main)
Format settings, Endianness              : Big
Codec ID                                 : A_AC3
Duration                                 : 2h 5mn
Bit rate mode                            : Constant
Bit rate                                 : 192 Kbps
Channel(s)                               : 2 channels
Channel positions                        : Front: L R
Sampling rate                            : 48.0 KHz
Bit depth                                : 16 bits
Compression mode                         : Lossy
Stream size                              : 172 MiB (1%)
Title                                    : Commentary
Language                                 : English
Default                                  : No
Forced                                   : No
Text #1
ID                                       : 13
Format                                   : UTF-8
Codec ID                                 : S_TEXT/UTF8
Codec ID/Info                            : UTF-8 Plain Text
Title                                    : Русские (Киномания)
Language                                 : Russian
Default                                  : No
Forced                                   : No
Text #2
ID                                       : 14
Format                                   : UTF-8
Codec ID                                 : S_TEXT/UTF8
Codec ID/Info                            : UTF-8 Plain Text
Title                                    : Английские
Language                                 : English
Default                                  : No
Forced                                   : No
Menu
00:00:00.000                             : en:Opening Credits
00:02:45.832                             : en:Nice Bike
00:05:06.306                             : en:Internal Affairs
00:11:11.295                             : en:Table Manners
00:14:44.174                             : en:Freeze
00:18:08.087                             : en:My Collar, My Case
00:20:48.580                             : en:Dental Work
00:23:09.846                             : en:Local Heat
00:31:24.299                             : en:Observers
00:46:03.010                             : en:Money to Burn
00:49:09.029                             : en:Ties
00:53:48.642                             : en:"What'd I Say"
00:55:31.119                             : en:Foreigner
00:57:25.817                             : en:The Last Bullfught
01:02:02.093                             : en:Just You and Me
01:07:33.424                             : en:Sequins
01:12:05.362                             : en:Gray Areas
01:15:14.426                             : en:The Switch
01:19:33.810                             : en:Missing Plate
01:23:30.922                             : en:Hot Lead
01:26:43.698                             : en:Suspended
01:32:43.349                             : en:On the Edge
01:36:35.372                             : en:Black Rain
01:40:33.026                             : en:Going for It
01:47:11.258                             : en:The Yakuza Code
01:51:30.308                             : en:Payback
01:57:21.451                             : en:Honor
02:01:32.785                             : en:End Credits
Скачать

Скачать торрент!

Как скачивать? · Что такое торрент? · Рейтинг и ограничения

Сайт не распространяет и не хранит электронные версии произведений, а лишь предоставляет доступ к создаваемому пользователями каталогу ссылок на торрент-файлы, которые содержат только списки хеш-сумм

[Профиль] [ЛС]
Показать сообщения:    
Ответить на тему

Текущее время: Сегодня 07:03

Часовой пояс: GMT + 4



Вы не можете начинать темы
Вы не можете отвечать на сообщения
Вы не можете редактировать свои сообщения
Вы не можете удалять свои сообщения
Вы не можете голосовать в опросах
Вы не можете прикреплять файлы к сообщениям
Вы не можете скачивать файлы