Невозмутимый / Холодный как камень / Без эмоций / Stone Cold (Крэйг Р. Бэксли / Craig R. Baxley) [1991, США, боевик, драма, криминал, HDTV 1080i] DVO + 3x AVO (Михалев, Гаврилов, Горчаков) + original (eng) + sub (eng)

Ответить на тему
 
Автор Сообщение

user ®

Стаж: 7 лет 7 месяцев

Сообщений: 20008

Пост Пост: #1 от 25-Сен-2013 19:55

[Цитировать]

Невозмутимый / Холодный как камень / Без эмоций / Stone Cold
Год выпуска: 1991
Страна: США
Жанр: боевик, драма криминал
Продолжительность: 01:28:13
Перевод1: Профессиональный(двухголосый, закадровый)(НТВ+)
Перевод2: Авторский (одноголосый, закадровый)(А.Михалёв)
Перевод3: Авторский (одноголосый, закадровый)(А.Гаврилов)
Перевод4: Авторский (одноголосый, закадровый)( .Горчаков)
Субтитры: английские
Оригинальная аудиодорожка: английский
Режиссер: Крэйг Р. Бэксли / Craig R. Baxley
В ролях: Брайан Босворт, Лэнс Хенриксен, Иллэна Дайамант, Уильям Форсайт, Арабелла Хольцбог, Сэм МакМюррей, Ричард Гант, Пауло Тока, Дэвид Тресс, Ивэн Джеймс
Описание: Джо Хафф — полицейский, который внедряется в банду рокеров, терроризирующую городок в штате Миссисипи, подминая под себя не только рядовых его жителей и подпольных бизнесменов, но и местные органы власти, включая представителей правосудия. Внешность и манеры поведения Джо позволяют ему выдать себя среди рокеров за своего и под именем Джо Стоуна начать разработку операции по захвату всей моторизованной и до зубов вооруженной банды, которой руководит безжалостный Чейнз.

Качество: HDTV 1080i
Формат: MKV
Видео кодек: H.264
Аудио кодек: AC3
Видео: 1920 x 1080; 25 fps; 8 448 Kbps
Аудио1: Русский, AC3 2.0 192 Kbps 48,0 КГц(NTV+)
Аудио2: Русский, AC3 2.0 192 Kbps 48,0 КГц(Mikhalev)
Аудио3: Русский, AC3 2.0 192 Kbps 48,0 КГц(Gavrilov)
Аудио4: Русский, AC3 2.0 192 Kbps 48,0 КГц(Gorchakov)
Аудио5: English, AC3 2.0 192 Kbps 48,0 КГц(Original)
Субтитры: SoftSub (SRT)

MediaInfo

D:\HDFILMS\Stone.Cold.1991.HDTV.1080i.4xRus.Eng.mkv
General
Unique ID : 187957021628710466621933283486041499035 (0x8D6734A3983F652BB5DA2E1DF711E59B)
Complete name : D:\HDFILMS\Stone.Cold.1991.HDTV.1080i.4xRus.Eng.mkv
Format : Matroska
File size : 5.92 GiB
Duration : 1h 28mn
Overall bit rate : 9 599 Kbps
Movie name : Stone Cold
Encoded date : UTC 2013-09-24 16:59:28
Writing application : mkvmerge v6.2.0 ('Promised Land') built on Apr 28 2013 12:22:01
Writing library : libebml v1.3.0 + libmatroska v1.4.0
Video #1
ID : 1
Format : AVC
Format/Info : Advanced Video Codec
Format profile : Main@L4.0
Format settings, CABAC : Yes
Format settings, ReFrames : 4 frames
Codec ID : V_MPEG4/ISO/AVC
Duration : 1h 28mn
Bit rate mode : Variable
Bit rate : 8 448 Kbps
Maximum bit rate : 40.0 Mbps
Width : 1 920 pixels
Height : 1 080 pixels
Display aspect ratio : 16:9
Frame rate : 50.000 fps
Original frame rate : 25.000 fps
Color space : YUV
Chroma subsampling : 4:2:0
Bit depth : 8 bits
Scan type : Interlaced
Scan order : Top Field First
Bits/(Pixel*Frame) : 0.081
Stream size : 5.21 GiB (88%)
Title : Stone Cold 1991 1080p HDTV H.264 MPA2.0-saMMie
Color primaries : BT.709-5, BT.1361, IEC 61966-2-4, SMPTE RP177
Transfer characteristics : BT.709-5, BT.1361
Matrix coefficients : BT.709-5, BT.1361, IEC 61966-2-4 709, SMPTE RP177
Audio #2
ID : 2
Format : AC-3
Format/Info : Audio Coding 3
Mode extension : CM (complete main)
Codec ID : A_AC3
Duration : 1h 28mn
Bit rate mode : Constant
Bit rate : 192 Kbps
Channel(s) : 2 channels
Channel positions : Front: L R
Sampling rate : 48.0 KHz
Bit depth : 16 bits
Compression mode : Lossy
Stream size : 121 MiB (2%)
Title : NTV+ AC3 2.0 192 kbps
Language : Russian
Audio #3
ID : 3
Format : AC-3
Format/Info : Audio Coding 3
Mode extension : CM (complete main)
Codec ID : A_AC3
Duration : 1h 28mn
Bit rate mode : Constant
Bit rate : 192 Kbps
Channel(s) : 2 channels
Channel positions : Front: L R
Sampling rate : 48.0 KHz
Bit depth : 16 bits
Compression mode : Lossy
Stream size : 121 MiB (2%)
Title : Mikhalev AC3 2.0 192 kbps
Language : Russian
Audio #4
ID : 4
Format : AC-3
Format/Info : Audio Coding 3
Mode extension : CM (complete main)
Codec ID : A_AC3
Duration : 1h 28mn
Bit rate mode : Constant
Bit rate : 192 Kbps
Channel(s) : 2 channels
Channel positions : Front: L R
Sampling rate : 48.0 KHz
Bit depth : 16 bits
Compression mode : Lossy
Stream size : 121 MiB (2%)
Title : Gavrilov AC3 2.0 192 kbps
Language : Russian
Audio #5
ID : 5
Format : AC-3
Format/Info : Audio Coding 3
Mode extension : CM (complete main)
Codec ID : A_AC3
Duration : 1h 28mn
Bit rate mode : Constant
Bit rate : 192 Kbps
Channel(s) : 2 channels
Channel positions : Front: L R
Sampling rate : 48.0 KHz
Bit depth : 16 bits
Compression mode : Lossy
Stream size : 121 MiB (2%)
Title : Gorchakov AC3 2.0 192 kbps
Language : Russian
Audio #6
ID : 6
Format : AC-3
Format/Info : Audio Coding 3
Mode extension : CM (complete main)
Codec ID : A_AC3
Duration : 1h 28mn
Bit rate mode : Constant
Bit rate : 192 Kbps
Channel(s) : 2 channels
Channel positions : Front: L R
Sampling rate : 48.0 KHz
Bit depth : 16 bits
Compression mode : Lossy
Stream size : 121 MiB (2%)
Title : Original AC3 2.0 192 kbps
Language : English
Text #7
ID : 7
Format : UTF-8
Codec ID : S_TEXT/UTF8
Codec ID/Info : UTF-8 Plain Text
Language : English

Скриншоты

Скачать

Скачать торрент!

Как скачивать? · Что такое торрент? · Рейтинг и ограничения

Сайт не распространяет и не хранит электронные версии произведений, а лишь предоставляет доступ к создаваемому пользователями каталогу ссылок на торрент-файлы, которые содержат только списки хеш-сумм

[Профиль] [ЛС]
Показать сообщения:    
Ответить на тему

Текущее время: Сегодня 22:15

Часовой пояс: GMT + 4



Вы не можете начинать темы
Вы не можете отвечать на сообщения
Вы не можете редактировать свои сообщения
Вы не можете удалять свои сообщения
Вы не можете голосовать в опросах
Вы не можете прикреплять файлы к сообщениям
Вы не можете скачивать файлы